новый адрес
Мега распродажа FORZA HORIZON 4 ULTIMATE+ВСЕ DLC+ОНЛАЙН всего за 499р. 349 руб. (супер цена). Внимание количество ограничено!!!

iTunes

1+1

iTunes

мы

iTunes

1

iTunes

Чернобыль

iTunes

Ральф против интернета

Лицензия

ПШазам

Лицензия

Оно 2

Лицензия

30
pack

ВАЖНО

!!Акция!!

Alien_RageХит недели

RePack

Resident Evil 21

ИГРА 18+

pack

RePack

Metro:Exodus

!!Акция!!

Alien_Rage

RePack

fifa19

RePack

Assassins Creed: Odyssey

RePack

NEED FOR SPEED™ PAYBACK

3 сезон

9 сезон

Бесстыжие 9 сезон

Все сериалы

все сериалы на PB.wtf

RePack

FAR CRY 5
Ребята, катастрофически не хватает 1900р. для оплаты серверов за Октябрь (всвязи с блокировками трафик упал в 3 раза), 1-2р., выручайте.
  

Давай будем плохими / Let's Be Evil (Мартин Оуэн ) [2016, триллер, HDRip] DVO pb.wtf

Давай будем плохими через торрент pb.wtf

Размер: 1003 MB | Добавлен: 3 года 2 мес. назад | Торрент скачан:109 раз
Скачать  

04-09-2016 21:17 Давай будем плохими Скачать торрент  

Давай будем плохими / Let's Be Evil

Год выпуска: 2016
Страна: Великобритания
Жанр: триллер
Продолжительность: 01:22:35
Перевод: Любительский двухголосый (RecentFilms)
Режиссер: Мартин Оуэн
В ролях: Джэми Бернадетт (Body of Arial), Кара Тойнтон (Tiggs), Изабелль Аллен (Cassandra), Элизабет Моррис (Jenny), Эллиотт Джеймс Лангридж (Darby), Мартин Оуэн (Telephone Caller), Хелен Уилсон (Nina), Billie Wilson (Crying Candidate), Джеймс Макартни (Freddy), Джонатан Уиллис (Voice of the Facility), Брук Джонстон (Newsroom Anchor), Kieran Dodding (Candidate)
Описание:
Нуждаясь в деньгах, чтобы ухаживать за больной матерью, Дженни соглашается участвовать в некоем эксперименте в учебном центре для одарённых детей. Но когда она и два новых сотрудника попадают в подземный бункер строгого режима, где находятся жуткие роботизированные дети в очках виртуальной реальности, Дженни понимает, что тут что-то не так.
Рейтинг:

Качество: HDRip
Формат: AVI
Видео: MPEG-4 Visual, 720x344 (2.093), 1429 kbps, 24 fps, 0,241 bpp
Аудио: AC3 / 2.0 / 48 kHz / 256 kbps / 16 bit

General
Complete name Let's.Be.Evil.2016.avi
Format : AVI
Format/Info : Audio Video Interleave
File size : 1 003 MiB
Duration : 1 h 22 min
Overall bit rate : 1 698 kb/s
Writing application : Lavf56.36.100

Video
ID : 1
Format : MPEG-4 Visual
Format profile : Simple@L1
Format settings, BVOP : No
Format settings, QPel : No
Format settings, GMC : No warppoints
Format settings, Matrix : Default (H.263)
Codec ID : FMP4
Duration : 1 h 22 min
Bit rate : 1 430 kb/s
Width : 720 pixels
Height : 344 pixels
Display aspect ratio : 2.093
Frame rate : 24.000 FPS
Color space : YUV
Chroma subsampling : 4:2:0
Bit depth : 8 bits
Scan type : Progressive
Compression mode : Lossy
Bits/(Pixel*Frame) : 0.241
Stream size : 845 MiB (84%)
Writing library : Lavc56.41.100

Audio
ID : 0
Format : AC-3
Format/Info : Audio Coding 3
Mode extension : CM (complete main)
Format settings, Endianness : Big
Codec ID : 2000
Duration : 1 h 22 min
Bit rate mode : Constant
Bit rate : 256 kb/s
Channel(s) : 2 channels
Channel positions : Front: L R
Sampling rate : 48.0 kHz
Frame rate : 31.250 FPS (1536 spf)
Bit depth : 16 bits
Compression mode : Lossy
Stream size : 151 MiB (15%)
Alignment : Aligned on interleaves
Interleave, duration : 42 ms (1.00 video frame)
Скриншоты:
pb.wtf



Скачать Давай будем плохими через торрент http://i6.imageban.ru/out/2016/09/05/4b04033d038d1c384d8a251f01f27a8d.jpg Скачать фильм Давай будем плохими через торрент бесплантно в хорошем качестве Описание: Нуждаясь в деньгах, чтобы ухаживать за больной матерью, Дженни соглашается участвовать в некоем эксперименте в учебном центре для ... 8.2 10 9
Торрент: Зарегистрирован [2016-09-04 21:17] · скачан: 109 раз
Статус: T временная
Размер: 1003 MB
Как cкачать? Как скачать Давай будем плохими через торрент | qTorrent


>> Регистрируемся здесь <<






Отзывы и комментарии о схеме читаем и пишем здесь: ---> Отзывы и комментарии о схеме

Новые благодарочки в телеграм довольных пользователей:
скриншот   скриншот   скриншот   скриншот   скриншот

07-09-2016 08:52 Давай будем плохими Скачать торрент  

Фигня,пустая трата времени и это при том что я люблю фантастику.pb.wtf



16-09-2016 03:43 Давай будем плохими Скачать торрент  

мнение тоже самоеpb.wtf



22-10-2016 08:09 Давай будем плохими Скачать торрент  

подземный бункер строгого режима, где находятся жуткие роботизированные дети в очках виртуальной реальности, Дженни понимает, что тут что-то не так. pb.wtf



    Дорогой пользователь! Огромная просьба, поблагодарите релизера, оцените раздачу и оставьте свои комментарий, если Вы скачали Давай будем плохими через торрент бесплатно! Внесите свою лепту в развитие PiratBit!
    Комментировать посты могут только пользователи прошедшие не сложную регистрацию
    Показать сообщения:    

    Давай будем плохими через торрент
    Скачать бесплатно Давай будем плохими
    Давай будем плохими скачать торрент
    Давай будем плохими смотреть онлайн
    Cкачать фильм Давай будем плохими бесплатно
    Давай будем плохими скачать торрент в хорошем качестве
    Давай будем плохими смотреть онлайн бесплатно в хорошем качестве


    Вы не можете начинать темы
    Вы не можете отвечать на сообщения
    Вы не можете редактировать свои сообщения
    Вы не можете удалять свои сообщения
    Вы не можете голосовать в опросах
    Вы не можете прикреплять файлы к сообщениям
    Вы можете скачивать файлы