Ссылка на приватное зеркало всего за 1$. Внимание количество ограничено!!!

iTunes

iTunes

iTunes

1

iTunes

iTunes

iTunes

iTunes

iTunes

30
pack

$ от Little Big

ВАЖНО

!!Акция!!

Alien_RageХит недели

RePack

Resident Evil 21

ИГРА 18+

pack

RePack

jed

!!Акция!!

Alien_Rage

RePack

fifa19

RePack

Assassins Creed: Odyssey

RePack

NEED FOR SPEED™ PAYBACK

4 сезон

9 сезон

Бесстыжие 9 сезон

Все сериалы

все сериалы на PB.wtf

RePack

FAR CRY 5
  

Антирождение / Antibirth (Дэнни Перез ) [2016, ужасы, WEB-DLRip 720p] DVO pb.wtf

Антирождение через торрент pb.wtf

Размер: 2.14 GB | Добавлен: 3 года 10 мес. назад | Торрент скачан:94 раза
Скачать  

04-09-2016 21:59 Антирождение Скачать торрент  

Антирождение / Antibirth

Год выпуска: 2016
Страна: США, Канада
Жанр: ужасы
Продолжительность: 01:34:40
Перевод: Любительский двухголосый (RecentFilms)
Режиссер: Дэнни Перез
В ролях: Наташа Лионн (Lou), Хлоя Севиньи (Sadie), Мег Тилли (Lorna), Марк Веббер (Gabriel), Максвелл МакКейб-Локос (Warren), Эммануэль Кабонго (Luke), Невилл Эдвардс (Isaac), Морган Бедард (Jade), Кори Паскаль (Jackson), Лили Фрэнкс (Anha), Мари-Джози Дайонн (Trish), Джессика Греко (Donna)
Описание:
В небольшом удалённом от городов сообществе ходят слухи о похищениях инопланетянами, а ещё все там только и делают, что пьют и принимают наркотики. После одной такой весёлой ночи у Лу обнаруживаются симптомы странного заболевания, а так же её посещают не менее странные видения. И вдобавок она ещё и оказывается беременной.
Рейтинг:

Качество: WEB-DLRip 720p
Формат: MKV
Видео: AVC, 1280x688 (1.85:1), 2985 kbps, 23,976 fps, 0,141 bpp
Аудио: русский / AC3 / 2.0 / 48 kHz / 256 kbps /

General
Unique ID Antibirth.2016.rus.720p.mkv
Format : Matroska
Format version : Version 4 / Version 2
File size : 2.14 GiB
Duration : 1 h 34 min
Overall bit rate : 3 243 kb/s
Encoded date : UTC 2016-09-04 15:52:34
Writing application : mkvmerge v7.8.0 ('River Man') 64bit built on Mar 27 2015 16:31:37
Writing library : libebml v1.3.1 + libmatroska v1.4.2

Video
ID : 1
Format : AVC
Format/Info : Advanced Video Codec
Format profile : Main@L4.1
Format settings, CABAC : No
Format settings, ReFrames : 4 frames
Codec ID : V_MPEG4/ISO/AVC
Duration : 1 h 34 min
Bit rate : 2 985 kb/s
Nominal bit rate : 4 000 kb/s
Width : 1 280 pixels
Height : 688 pixels
Display aspect ratio : 1.85:1
Frame rate mode : Constant
Frame rate : 23.976 (24000/1001) FPS
Original frame rate : 24.000 FPS
Color space : YUV
Chroma subsampling : 4:2:0
Bit depth : 8 bits
Scan type : Progressive
Bits/(Pixel*Frame) : 0.141
Stream size : 1.97 GiB (92%)
Writing library : x264 core 133 r2334 a3ac64b
Encoding settings : cabac=0 / ref=3 / deblock=1:0:0 / analyse=0x1:0x111 / me=hex / subme=7 / psy=1 / psy_rd=1.00:0.00 / mixed_ref=1 / me_range=16 / chroma_me=1 / trellis=1 / 8x8dct=0 / cqm=0 / deadzone=21,11 / fast_pskip=1 / chroma_qp_offset=-2 / threads=3 / lookahead_threads=1 / sliced_threads=0 / nr=0 / decimate=1 / interlaced=0 / bluray_compat=0 / constrained_intra=0 / bframes=3 / b_pyramid=2 / b_adapt=1 / b_bias=0 / direct=1 / weightb=1 / open_gop=0 / weightp=2 / keyint=240 / keyint_min=24 / scenecut=40 / intra_refresh=0 / rc_lookahead=40 / rc=2pass / mbtree=1 / bitrate=4000 / ratetol=1.0 / qcomp=0.60 / qpmin=0 / qpmax=69 / qpstep=4 / cplxblur=20.0 / qblur=0.5 / vbv_maxrate=50000 / vbv_bufsize=62500 / nal_hrd=none / ip_ratio=1.40 / aq=1:1.00
Default : Yes
Forced : No

Audio
ID : 2
Format : AC-3
Format/Info : Audio Coding 3
Mode extension : CM (complete main)
Format settings, Endianness : Big
Codec ID : A_AC3
Duration : 1 h 34 min
Bit rate mode : Constant
Bit rate : 256 kb/s
Channel(s) : 2 channels
Channel positions : Front: L R
Sampling rate : 48.0 kHz
Frame rate : 31.250 FPS (1536 spf)
Compression mode : Lossy
Stream size : 173 MiB (8%)
Language : Russian
Default : Yes
Forced : Yes
Скриншоты:
pb.wtf



Скачать Антирождение через торрент http://i5.imageban.ru/out/2016/09/05/a174e2bc7576d5b1d8c56b9ab59fa959.jpg Скачать фильм Антирождение через торрент бесплантно в хорошем качестве Описание: В небольшом удалённом от городов сообществе ходят слухи о похищениях инопланетянами, а ещё все там только и делают, что пьют и ... 10 10 6
Торрент: Зарегистрирован [2016-09-04 21:59] · скачан: 94 раз
Статус: T временная
Размер: 2.14 GB
Как cкачать? Как скачать Антирождение через торрент | qTorrent

% Раздел Тема Автор DL S | L
T Фильмы 2016 [DVDrip, WEB-DLRip, HDrip] (DUB, MVO) [ 746 MB ] Антирождение / Antibirth [2016 WEB-DLRip] DVO Sherif Скачать
1 | 0

28-11-2019 20:33  

Отключить всю рекламу на сайте

    Дорогой пользователь! Огромная просьба, поблагодарите релизера, оцените раздачу и оставьте свои комментарий, если Вы скачали Антирождение через торрент бесплатно! Внесите свою лепту в развитие PiratBit!
    Комментировать посты могут только пользователи прошедшие не сложную регистрацию
    Показать сообщения:    

    Антирождение через торрент
    Скачать бесплатно Антирождение
    Антирождение скачать торрент
    Антирождение смотреть онлайн
    Cкачать фильм Антирождение бесплатно
    Антирождение скачать торрент в хорошем качестве
    Антирождение смотреть онлайн бесплатно в хорошем качестве


    Вы не можете начинать темы
    Вы не можете отвечать на сообщения
    Вы не можете редактировать свои сообщения
    Вы не можете удалять свои сообщения
    Вы не можете голосовать в опросах
    Вы не можете прикреплять файлы к сообщениям
    Вы можете скачивать файлы