Ссылка на приватное зеркало нашего сайта всего за 1$. Внимание количество ограничено!!!

2 сезон

iTunes

1 сезон

1

iTunes

iTunes

iTunes

1 сезон

RePack

30

ИГРА 18+

pack

ВАЖНО

!!Акция!!

Alien_RageХит недели

RePack

MK11
pack

Забери бонус

RePack

jed

!!Акция!!

Alien_Rage

RePack

fifa19

RePack

Assassins Creed: Odyssey

RePack

NEED FOR SPEED™ PAYBACK

4 сезон

9 сезон

Бесстыжие 9 сезон

Все сериалы

все сериалы на PB.wtf

RePack

FAR CRY 5
  

Беги / Серии: 1-4 из 4 ( Андрей Волгин, Максим Кондратенко) [2016, боевик, детектив, SATRip-AVC] pb.wtf

Беги через торрент pb.wtf

Размер: 2.13 GB | Добавлен: 4 года 1 мес. назад | Торрент скачан:740 раз
Скачать  

04-09-2016 23:57 Беги Скачать торрент  

Беги




Год выпуска: 2016
Производство: Россия,ООО «Студия Грин Фильм», ООО «ПРИОР Продакшн»
Жанр: боевик, детектив
Продолжительность: 00:45:00
Субтитры: нет



Режиссёр: Андрей Волгин, Максим Кондратенко



В ролях: Павел Прилучный, Денис Шведов, Екатерина Редникова, Иван Жидков, Светлана Смирнова-Марцинкевич, Сергей Колос, Аркадий Шароградский, Татьяна Казючиц, Александр Кудренко, Владимир Крылов, Михаил Трясоруков, Сергей Харитонов, Вячеслав Гумеров, Геша Меньшиков, Денис Кириллов, Глеб Темнов, Геннадий Скоморохов, Сергей Лысов.




Описание: Четверо друзей - Павел, Матвей и братья Артём и Дмитрий Воронковы - берут кредит в банке, чтобы завершить разработку уникальной компьютерной программы. Её создал "русский Билл Гейтс" Дима Воронков. Ребята рассчитывают выгодно продать своё изобретение, а Дима мечтает жениться на своей невесте Варе, которая ждёт ребёнка. Но внезапно Артёма Воронкова убивают, а в преступлении обвиняют его брата Диму. Программиста отправляют в колонию, где заключенные требуют флешку с программой, угрожая Воронкову и его семье. Дима понимает, что спасти себя и Варю он сможет, если окажется на свободе. Судьба даёт Диме последний шанс, подсказывая: "Беги!". На главного героя начинается настоящая охота. По его следу идут подполковник Алла Кириленко, а также конкуренты, которые хотят завладеть новой технологией Воронкова.







Качество: SATRip-AVC
Формат: MKV
Видео кодек: H.264
Аудио кодек: AC3
Видео: MPEG-4 AVC, 720х400,25fps,~1500 Кбит/сек,Bits/Pixel 0.236
Аудио: AC3, 48 kHz, ~192 Kbps, 2 канала



Общее
Уникальный идентификатор : 236947720882757376688205517626685500638 (0xB24278995EBB13018BB1BAB88A6BACDE)
Полное имя : H:Беги1 серия_Беги_rip by_Aleksan55.mkv
Формат : Matroska
Версия формата : Version 2
Размер файла : 556 Мбайт
Продолжительность : 45 м.
Общий поток : 1693 Кбит/сек
Дата кодирования : UTC 2016-09-04 15:20:54
Программа кодирования : mkvmerge v7.8.0 ('River Man') 32bit built on Apr 3 2015 12:11:22
Библиотека кодирования : libebml v1.3.1 + libmatroska v1.4.2

Видео
Идентификатор : 1
Формат : AVC
Формат/Информация : Advanced Video Codec
Профиль формата : High@L4.1
Параметр CABAC формата : Да
Параметр ReFrames формата : 12 кадров
Идентификатор кодека : V_MPEG4/ISO/AVC
Продолжительность : 45 м.
Битрейт : 1500 Кбит/сек
Ширина : 720 пикселей
Высота : 400 пикселей
Соотношение сторон : 16:9
Режим частоты кадров : Постоянный
Частота кадров : 25,000 кадров/сек
Цветовое пространство : YUV
Субдискретизация насыщенности : 4:2:0
Битовая глубина : 8 бит
Тип развёртки : Прогрессивная
Бит/(Пиксели*Кадры) : 0.208
Размер потока : 482 Мбайт (87%)
Библиотека кодирования : x264 core 148 r2638 7599210
Настройки программы : cabac=1 / ref=12 / deblock=1:-3:-3 / analyse=0x3:0x113 / me=umh / subme=9 / psy=1 / psy_rd=1.00:0.15 / mixed_ref=0 / me_range=48 / chroma_me=1 / trellis=2 / 8x8dct=1 / cqm=0 / deadzone=21,11 / fast_pskip=1 / chroma_qp_offset=-3 / threads=3 / lookahead_threads=3 / sliced_threads=0 / nr=0 / decimate=1 / interlaced=0 / bluray_compat=0 / constrained_intra=0 / bframes=12 / b_pyramid=2 / b_adapt=1 / b_bias=0 / direct=3 / weightb=1 / open_gop=0 / weightp=2 / keyint=250 / keyint_min=25 / scenecut=40 / intra_refresh=0 / rc_lookahead=40 / rc=2pass / mbtree=1 / bitrate=1500 / ratetol=1.0 / qcomp=0.60 / qpmin=0 / qpmax=69 / qpstep=4 / cplxblur=20.0 / qblur=0.5 / ip_ratio=1.40 / aq=1:1.20
Default : Да
Forced : Нет
Цветовой диапазон : Limited
Основные цвета : BT.601 PAL
Характеристики трансфера : BT.470 System B, BT.470 System G
Коэффициенты матрицы : BT.601

Аудио
Идентификатор : 2
Формат : AC-3
Формат/Информация : Audio Coding 3
Расширение режима : CM (complete main)
Параметр Endianness формата : Big
Идентификатор кодека : A_AC3
Продолжительность : 45 м.
Вид битрейта : Постоянный
Битрейт : 192 Кбит/сек
Каналы : 2 канала
Расположение каналов : Front: L R
Частота : 48,0 КГц
Метод сжатия : С потерями
Размер потока : 63,0 Мбайт (11%)
Default : Да
Forced : Нет


Рекламы нет.pb.wtf



Скачать Беги через торрент http://s020.radikal.ru/i719/1609/2f/973fd247a74f.jpg Скачать фильм Беги через торрент бесплантно в хорошем качестве Описание: Четверо друзей - Павел, Матвей и братья Артём и Дмитрий Воронковы - берут кредит в банке, чтобы завершить разработку уникальной ... 9.4 10 25
Info! Золотая раздача, скачанное не засчитывается.
Торрент: Зарегистрирован [2016-09-04 23:57] · скачан: 740 раз
Статус: √ проверено
Размер: 2.13 GB
Как cкачать? Как скачать Беги через торрент | qTorrent

% Раздел Тема Автор DL S | L
Зарубежные сериалы [ 5.39 GB ] Беги / Run / Сезон: 1 / Серии: 1-4 из 4 [2013 WEB-DL 720p] MVO [TVShows] bober100 Скачать
1 | 0
Зарубежные сериалы [ 13.25 GB ] Беги / Run / Сезон: 1 / Серии: 1-4 из 4 [2013 WEB-DL 1080p] [MVO] killermax2013 Скачать
1 | 0
Наши сериалы [ 4.16 GB ] Беги не оглядывайся! / Серии: 1-4 из 4 [2017 Мело WEB-DL 1080p] bober100 Скачать
1 | 0
Наши сериалы [ 12.42 GB ] Беги! / Серии: 1-4 из 4 [2016 HDTV 1080i] bober100 Скачать
1 | 0
Наши сериалы [ 2.3 GB ] Беги не оглядывайся / Серии: 1-4 из 4 [2017 SATRip-AVC] aleksan55 Скачать
1 | 0
Наши сериалы [ 2.63 GB ] Беги не оглядывайся! / Серия 1-4 из 4 [2017 Мело SATRip] oleg8 Скачать
1 | 0
Наши сериалы [ 10.81 GB ] Беги! [2016 HDTV Оригинал] Бумер Скачать
1 | 0

28-11-2019 20:33  

Отключить всю рекламу на сайте

    Дорогой пользователь! Огромная просьба, поблагодарите релизера, оцените раздачу и оставьте свои комментарий, если Вы скачали Беги через торрент бесплатно! Внесите свою лепту в развитие PiratBit!
    Комментировать посты могут только пользователи прошедшие не сложную регистрацию
    Показать сообщения:    

    Беги через торрент
    Скачать бесплатно Беги
    Беги скачать торрент
    Беги смотреть онлайн
    Cкачать фильм Беги бесплатно
    Беги скачать торрент в хорошем качестве
    Беги смотреть онлайн бесплатно в хорошем качестве


    Вы не можете начинать темы
    Вы не можете отвечать на сообщения
    Вы не можете редактировать свои сообщения
    Вы не можете удалять свои сообщения
    Вы не можете голосовать в опросах
    Вы не можете прикреплять файлы к сообщениям
    Вы можете скачивать файлы