новый адрес
Мега распродажа FORZA HORIZON 4 ULTIMATE+ВСЕ DLC+ОНЛАЙН всего за 499р. 349 руб. (супер цена). Внимание количество ограничено!!!

iTunes

1+1

iTunes

мы

iTunes

1

iTunes

Чернобыль

iTunes

Ральф против интернета

Лицензия

ПШазам

Лицензия

Оно 2

Лицензия

30
pack

ВАЖНО

!!Акция!!

Alien_RageХит недели

RePack

Resident Evil 21

ИГРА 18+

pack

RePack

jed

!!Акция!!

Alien_Rage

RePack

fifa19

RePack

Assassins Creed: Odyssey

RePack

NEED FOR SPEED™ PAYBACK

3 сезон

9 сезон

Бесстыжие 9 сезон

Все сериалы

все сериалы на PB.wtf

RePack

FAR CRY 5
Ребята, катастрофически не хватает 1900р. для оплаты серверов за Октябрь (всвязи с блокировками трафик упал в 3 раза), 1-2р., выручайте.
  

Убийцы (Марика Бейку, Александр Гордон, Андрей Тарковский) [1956, СССР, короткометражка, BDRip от AVP Studio] pb.wtf

Убийцы через торрент pb.wtf

Размер: 370 MB | Добавлен: 3 года 2 мес. назад | Торрент скачан:17 раз
Скачать  

05-09-2016 08:43 Убийцы Скачать торрент  

Убийцы
Страна: СССР
Производство: ВГИК

Жанр: короткометражка, драма, экранизация
Год выпуска: 1956
Продолжительность: 00:20:38

Перевод: Не требуется
Cубтитры: нет
Оригинальная аудиодорожка: русский

Режиссер: Марика Бейку, Александр Гордон, Андрей Тарковский

В ролях:
Юлий Файт, Александр Гордон, Валентин Виноградов, Вадим Новиков, Юрий Дубровин (II), Андрей Тарковский, Василий Шукшин...
Полный список актёров

Описание:
Первый студенческий фильм Андрея Тарковского, снятый им во время учебы во ВГИКе (режиссерская мастерская М.И.Ромма). Большинство критиков признают фильм лучшим из когда-либо снятых студенческих короткометражных фильмов.
Фильм снят по рассказу Э.Хемингуэя и состоит из трех эпизодов.

Источник: BDRemux 1080p
Качество видео: BDRip
Формат видео: AVI

Видео: 720x544 (4:3), 25 fps, XviD ~ 2302 kbps avg, 0.245 bit/pixel
Аудио: 48 kHz, Dolby Digital AC3 2.0, 192 kbps

Раздача от:
Общее
Полное имя : Ubiycy.1956.BDRip_[New-team]_by_AVP_Studio.avi
Формат : AVI
Формат/Информация : Audio Video Interleave
Размер файла : 370 Мбайт
Продолжительность : 20 м.
Общий поток : 2503 Кбит/сек
Программа кодирования : VirtualDubMod 1.5.10.3 | www.virtualdub-fr.org || (build 2550/release)
Библиотека кодирования : VirtualDubMod build 2550/release

Видео
Идентификатор : 0
Формат : MPEG-4 Visual
Профиль формата : Advanced Simple@L5
Параметр BVOP формата : 1
Параметр QPel формата : Нет
Параметр GMC формата : Без точки перехода
Параметр матрицы формата : Выборочная
Идентификатор кодека : XVID
Идентификатор кодека/Подсказка : XviD
Продолжительность : 20 м.
Битрейт : 2302 Кбит/сек
Ширина : 720 пикселей
Высота : 544 пикселя
Соотношение сторон : 4:3
Частота кадров : 23,976 (23976/1000) кадра/сек
Цветовое пространство : YUV
Субдискретизация насыщенности : 4:2:0
Битовая глубина : 8 бит
Тип развёртки : Прогрессивная
Метод сжатия : С потерями
Бит/(Пиксели*Кадры) : 0.245
Размер потока : 340 Мбайт (92%)
Библиотека кодирования : XviD 1.2.1 (UTC 2008-12-04)

Аудио
Идентификатор : 1
Формат : AC-3
Формат/Информация : Audio Coding 3
Расширение режима : CM (complete main)
Параметр Endianness формата : Big
Идентификатор кодека : 2000
Продолжительность : 20 м.
Вид битрейта : Постоянный
Битрейт : 192 Кбит/сек
Каналы : 2 канала
Расположение каналов : Front: L R
Частота : 48,0 КГц
Частота кадров : 31,250 кадров/сек (1536 spf)
Метод сжатия : С потерями
Размер потока : 28,3 Мбайт (8%)
Выравнивание : Разделение по промежуткам
Продолжительность промежутка : 42 мс. (1,00 видеокадр)
Время предзагрузки промежутка : 500 мс
pb.wtf



Скачать Убийцы через торрент http://s013.radikal.ru/i325/1609/84/141cf6e5e52e.png Скачать фильм Убийцы через торрент бесплантно в хорошем качестве Описание:Первый студенческий фильм Андрея Тарковского, снятый им во время учебы во ВГИКе (режиссерская мастерская М.И.Ромма). Большинство ... 10 10 1
Info! Золотая раздача, скачанное не засчитывается.
Торрент: Зарегистрирован [2016-09-05 08:43] · скачан: 17 раз
Статус: √ проверено
Размер: 370 MB
Как cкачать? Как скачать Убийцы через торрент | qTorrent

% Раздел Тема Автор DL S | L
Порно фильмы с сюжетом [ 852 MB ] Азиатские Анальные Убийцы / Asian Anal Assassins [2012 Anal Blowjob Pussy Eating Boobs Brunette Boots/Heels Geisha. WEB-DLRip] Pir@tya2010 Скачать
2 | 0
RPG [ 6.15 GB ] Ведьмак 2: Убийцы королей 2011 [RepackRURPG / 3D / 3rd Person] от R.G. Catalyst SD Скачать
1 | 0
Фильмы 2009 [ 1.36 GB ] Ниндзя-убийца / Ninja Assassin [2009 HDRip лицензия] Sудья Скачать
1 | 0
Фильмы 2011 [ 1.45 GB ] Гора-убийца / Killer Mountain [2011 DVDRip лицензия] coc900 Скачать
1 | 0
Сборники на DVD и Сиквелы [DVDrip, WEB-DLRip, HDrip, BDRip] [ 2.04 GB ] Помидоры-убийцы и Возвращение помидоров убийц / Attack of the Killer Tomatoes & Return of the Killer Tomatoes [ DVDRip] Илья.96=) Скачать
1 | 0
Короткометражные мультфильмы [ 333 MB ] Кредо Убийцы: Угли / Assassin's Creed: Embers [2011 короткометражка мульфильм HDRip] SD Скачать
1 | 0
Азиатские фильмы [ 1.37 GB ] Легендарный убийца / Legendary Assassin / Long nga [2008 экшн HDRip] baldyp Скачать
1 | 0


>> Регистрируемся здесь <<






Отзывы и комментарии о схеме читаем и пишем здесь: ---> Отзывы и комментарии о схеме

Новые благодарочки в телеграм довольных пользователей:
скриншот   скриншот   скриншот   скриншот   скриншот
    Дорогой пользователь! Огромная просьба, поблагодарите релизера, оцените раздачу и оставьте свои комментарий, если Вы скачали Убийцы через торрент бесплатно! Внесите свою лепту в развитие PiratBit!
    Комментировать посты могут только пользователи прошедшие не сложную регистрацию
    Показать сообщения:    

    Убийцы через торрент
    Скачать бесплатно Убийцы
    Убийцы скачать торрент
    Убийцы смотреть онлайн
    Cкачать фильм Убийцы бесплатно
    Убийцы скачать торрент в хорошем качестве
    Убийцы смотреть онлайн бесплатно в хорошем качестве


    Вы не можете начинать темы
    Вы не можете отвечать на сообщения
    Вы не можете редактировать свои сообщения
    Вы не можете удалять свои сообщения
    Вы не можете голосовать в опросах
    Вы не можете прикреплять файлы к сообщениям
    Вы можете скачивать файлы