Всегда рабочее зеркало без VPN и Proxy просто перед .vidak.icu напиши любое слово или цифру, Пример http://mypb.vidak.icu

Лицензия

MVO

1 сезон

1

1 сезон

iTunes

1 сезон

13

1 сезон

Deluxe

pack

Рекомендуем

Repack

30

ВАЖНО

RePack

MK11

RePack

jed

RePack

fifa19

RePack

RDR2

RePack

NEED FOR SPEED™ PAYBACK

Кинопоиск HD

6 сезон

 Острые козырьки 6 сезон

Все сериалы

все сериалы на PB.wtf

RePack

FAR CRY 5
  
Magnet ссылка

Робинзон Крузо: Очень обитаемый остров / Robinson Crusoe (Винсент Кестелут / Vincent Kesteloot, Бен Стассен / Ben Stassen) [2016, мультфильм, комедия, приключения, BDRip-AVC от potroks] Dub [Лицензия] pb.wtf

Робинзон Крузо: Очень обитаемый остров через торрент pb.wtf

Размер: 1.46 GB | Добавлен: 5 лет 11 мес. назад | Торрент скачан:555 раз
Смотреть онлайн Робинзон Крузо: Очень обитаемый остров | Скачать    Ребята, помогите собрать деньги на оплату серверов!!!

05-09-2016 18:39 Робинзон Крузо: Очень обитаемый остров Скачать торрент  

Робинзон Крузо: Очень обитаемый остров / Robinson Crusoe
«Однажды на берег очень даже обитаемого острова...»
Год выпуска: 2016
Страна: Франция, Бельгия / nWave Pictures, Studio Canal, uFilm
Жанр: мультфильм, комедия, приключения
Продолжительность: 01:30:27
Перевод: Дубляж [BD RUS]
Субтитры: немецкие (SDH)
Навигация по главам: есть
Режиссер: Винсент Кестелут / Vincent Kesteloot, Бен Стассен / Ben Stassen
В ролях:

Рон Аллен (Bosun), Джордж Бэббит (Sleeping Sailor), Лайла Берзиньш (Rosie), Илька Бессин (Tapir Rosie, озвучка), Джои Камен (Scrubby), Джефф Дусетте (Mal), Джефф Дусетте (Pango), Сэнди Фокс (Epi), Дитер Халлерворден (Ziegenbock Zottel, озвучка), Кайл Херберт (Tom Cat), Мэриев Херингтон (Kiki), Дэвид Ховард (Tuesday)
Описание: Все знают историю о Робинзоне Крузо, попавшем на необитаемый остров. Однако, как же можно назвать его необитаемым, если он населен разнообразными веселыми животными и птицами? Они очень удивились, впервые встретив это странное существо, и даже приняли его за морское чудовище. Попугаю по кличке Вторник и его друзьям - хамелеону, тапиру и другим обитателям острова предстоит поближе познакомиться с незнакомым зверем «человеком» и вместе с ним пережить массу опасных и веселых приключений.

Качество: BDRip-AVC
Формат: MKV
Видео кодек: AVC
Аудио кодек: AC3
Видео: AVC, 960x402 (2,40:1), 1863 kbps, 23,976 fps, 0.201 bit/pixel
Аудио: AC3 / 5.1 / 48 kHz / 448 kbps / 16 bit
Общее
Уникальный идентификатор : 171544238703362104787781578090971315635 (0x810E37F6DD1DDD1F9DB0CFCE47FEBDB3)
Полное имя : I:\Мультфильмы\Robinzon.Kruzo.Ochen.Obitaemyi.Ostrov.2016.RUS.BDRip.x264.-HELLYWOOD.mkv
Формат : Matroska
Версия формата : Version 4 / Version 2
Размер файла : 1,46 Гбайт
Продолжительность : 1 ч. 30 м.
Общий поток : 2309 Кбит/сек
Название фильма : Robinson Crusoe (2016)
Дата кодирования : UTC 2016-07-23 14:49:11
Программа кодирования : mkvmerge v5.9.0 ('On The Loose') built on Dec 15 2012 16:39:58
Библиотека кодирования : libebml v1.3.0 + libmatroska v1.4.0

Видео
Идентификатор : 1
Формат : AVC
Формат/Информация : Advanced Video Codec
Профиль формата : [email protected]
Параметр CABAC формата : Да
Параметр ReFrames формата : 11 кадров
Идентификатор кодека : V_MPEG4/ISO/AVC
Продолжительность : 1 ч. 30 м.
Битрейт : 1863 Кбит/сек
Ширина : 960 пикселей
Высота : 402 пикселя
Соотношение сторон : 2,40:1
Режим частоты кадров : Постоянный
Частота кадров : 23,976 (24000/1001) кадра/сек
Цветовое пространство : YUV
Субдискретизация насыщенности : 4:2:0
Битовая глубина : 8 бит
Тип развёртки : Прогрессивная
Бит/(Пиксели*Кадры) : 0.201
Размер потока : 1,15 Гбайт (79%)
Заголовок : potroks
Библиотека кодирования : x264 core 148 r2694M 3b70645
Настройки программы : cabac=1 / ref=11 / deblock=1:-1:-1 / analyse=0x3:0x133 / me=umh / subme=11 / psy=1 / psy_rd=1.10:0.15 / mixed_ref=1 / me_range=32 / chroma_me=1 / trellis=2 / 8x8dct=1 / cqm=0 / deadzone=21,11 / fast_pskip=0 / chroma_qp_offset=-3 / threads=9 / lookahead_threads=2 / sliced_threads=0 / nr=0 / decimate=0 / interlaced=0 / bluray_compat=0 / constrained_intra=0 / bframes=12 / b_pyramid=2 / b_adapt=2 / b_bias=0 / direct=3 / weightb=1 / open_gop=0 / weightp=2 / keyint=240 / keyint_min=23 / scenecut=40 / intra_refresh=0 / rc_lookahead=100 / rc=2pass / mbtree=0 / bitrate=1863 / ratetol=1.0 / qcomp=0.70 / qpmin=0 / qpmax=69 / qpstep=4 / cplxblur=20.0 / qblur=0.5 / vbv_maxrate=50000 / vbv_bufsize=60000 / nal_hrd=none / filler=0 / ip_ratio=1.40 / pb_ratio=1.30 / aq=1:0.80
Язык : French
Default : Да
Forced : Нет

Аудио
Идентификатор : 2
Формат : AC-3
Формат/Информация : Audio Coding 3
Расширение режима : CM (complete main)
Параметр Endianness формата : Big
Идентификатор кодека : A_AC3
Продолжительность : 1 ч. 30 м.
Вид битрейта : Постоянный
Битрейт : 448 Кбит/сек
Каналы : 6 каналов
Расположение каналов : Front: L C R, Side: L R, LFE
Частота : 48,0 КГц
Частота кадров : 31,250 кадров/сек (1536 spf)
Метод сжатия : С потерями
Размер потока : 290 Мбайт (19%)
Заголовок : Dub | DD 5.1 @ 448 kbps - Blu-ray RUS
Язык : Russian
Default : Да
Forced : Нет

Текст
Идентификатор : 3
Формат : UTF-8
Идентификатор кодека : S_TEXT/UTF8
Идентификатор кодека/Информация : UTF-8 Plain Text
Язык : German
Default : Нет
Forced : Нет

Меню
00:00:00.000 : :(01)00:00:00:000
00:11:40.323 : :(02)00:11:40:323
00:24:47.067 : :(03)00:24:47:067
00:35:02.266 : :(04)00:35:02:266
00:44:30.208 : :(05)00:44:30:208
00:54:34.271 : :(06)00:54:34:271
01:04:27.280 : :(07)01:04:27:280
01:15:12.631 : :(08)01:15:12:631
01:25:14.649 : :(09)01:25:14:649
pb.wtf



Скачать Робинзон Крузо: Очень обитаемый остров через торрент http://i77.fastpic.ru/big/2016/0723/e2/4fe687b65f24b0bee2f0a3b179b4c8e2.png Скачать, смотреть онлайн Робинзон Крузо: Очень обитаемый остров бесплантно в хорошем качестве Описание: Все знают историю о Робинзоне Крузо, попавшем на необитаемый остров. Однако, как же можно назвать его необитаемым, если он ... 10 10 10
Info! Золотая раздача, скачанное не засчитывается.
Торрент: Зарегистрирован [2016-09-05 18:39] · скачан: 555 раз
Статус: √ проверено
Размер: 1.46 GB
Как cкачать? Как скачать Робинзон Крузо: Очень обитаемый остров через торрент | UTorrent

% Раздел Тема Автор DL S | L
Иностранные мультфильмы [ 2.18 GB ] Робинзон Крузо: Очень обитаемый остров / Robinson Crusoe [2016 мультфильм BDRip-AVC] potroks Скачать
1 | 0
Зарубежные Мультфильмы (WEB-DL 720p, 1080p) [ 3.97 GB ] Робинзон Крузо: Очень обитаемый остров / Robinson Crusoe [2016 мультфильм BDRip 720p] DUB potroks Скачать
1 | 0
Зарубежные Мультфильмы (BDRip 1080p, 720p, Blu-ray, BD-Remux) [ 13.7 GB ] Робинзон Крузо: Очень обитаемый остров / Robinson Crusoe [2016 мультфильм BD-Remux1080p [D] - ] DJASFUL Скачать
1 | 0
Зарубежные Мультфильмы (DVD) [ 5.35 GB ] Робинзон Крузо: Очень обитаемый остров / Robinson Crusoe [2016 мультфильм DVD9] R5 voovaz Скачать
1 | 0
Иностранные мультфильмы [ 1.46 GB ] Робинзон Крузо: Очень обитаемый остров / Robinson Crusoe [2016 Бельгия мультфильм BDRip] DUB Twi7ter Скачать
1 | 0
Иностранные мультфильмы [ 747 MB ] Робинзон Крузо: Очень обитаемый остров / Robinson Crusoe [2016 Бельгия мультфильм BDRip-AVC от sokol_ok] DUB sokol_ok Скачать
2 | 0
R.G.Resident - Мультфильмы, Видео [ 1.67 GB ] Робинзон Крузо: Очень обитаемый остров / Robinson Crusoe [2016 мультфильм BDRip-AVC] DUB R.G.Resident Хорват Скачать
1 | 0

28-11-2019 20:33  

Отключить вcю реклaмy на сайте

08-09-2016 12:50 Робинзон Крузо: Очень обитаемый остров Скачать торрент  

интересно, на каком из этих веселых животных он снимал сексуальный стресс... одно дело когда реально один на острове, другое дело разные окорочка перед глазами :Dpb.wtf



    Дорогой пользователь! Огромная просьба, поблагодарите релизера, оцените раздачу и оставьте свои комментарий, если Вы скачали Робинзон Крузо: Очень обитаемый остров через торрент бесплатно!
    Комментировать посты могут только пользователи прошедшие не сложную регистрацию
    Показать сообщения:    

    Робинзон Крузо: Очень обитаемый остров через торрент
    Скачать бесплатно Робинзон Крузо: Очень обитаемый остров
    Робинзон Крузо: Очень обитаемый остров скачать торрент
    Робинзон Крузо: Очень обитаемый остров смотреть онлайн
    Cкачать фильм Робинзон Крузо: Очень обитаемый остров бесплатно
    Робинзон Крузо: Очень обитаемый остров скачать торрент в хорошем качестве
    Робинзон Крузо: Очень обитаемый остров смотреть онлайн бесплатно в хорошем качестве


    Вы не можете начинать темы
    Вы не можете отвечать на сообщения
    Вы не можете редактировать свои сообщения
    Вы не можете удалять свои сообщения
    Вы не можете голосовать в опросах
    Вы не можете прикреплять файлы к сообщениям
    Вы можете скачивать файлы