Ссылка на приватное зеркало нашего сайта всего за 1$. Внимание количество ограничено!!!

2 сезон

iTunes

1 сезон

1

2 сезон

2 сезон

iTunes

1 сезон

RePack

30

Новинка

ВАЖНО

ИГРА 18+

pack

RePack

MK11
pack

Забери бонус

RePack

jed

!!Акция!!

Alien_Rage

RePack

fifa19

RePack

Assassins Creed: Odyssey

RePack

NEED FOR SPEED™ PAYBACK

4 сезон

9 сезон

Бесстыжие 9 сезон

Все сериалы

все сериалы на PB.wtf

RePack

FAR CRY 5
  

Полдарк / Poldark / Сезон: 2 / Серии 1-10 из 10 (Эдвард Базалгетт / Edward Bazalgette, Уильям МакГрегор / William McGregor, Чарльз Палмер / Charlie Palmer) [2016, Великобритания, драма, мелодрама, история, WEB-DLRip-AVC, BDRip-AVC] MVO [BaibaKo] pb.wtf

Полдарк через торрент pb.wtf

Размер: 10.78 GB | Добавлен: 3 года 10 мес. назад | Торрент скачан:46 раз
Скачать  

06-09-2016 01:20 Полдарк Скачать торрент  

Полдарк / Poldark


  • Год выпуска: 2016
  • Страна: Великобритания
  • Жанр: драма, мелодрама, история
  • Продолжительность: 00:56:38 (Серия)
  • Перевод: Профессиональный многоголосый [BaibaKo]
  • Режиссер: Эдвард Базалгетт / Edward Bazalgette, Уильям МакГрегор / William McGregor, Чарльз Палмер / Charlie Palmer
  • В ролях:

    Эйдан Тернер (Ross Poldark), Элинор Томлинсон (Demelza), Хейда Рид (Elizabeth), Тристан Старрок (Zacky Martin), Джек Фартинг (George Warleggan), Кэролайн Блэкистон (Aunt Agatha), Эд Браунинг (Paul Daniel), Бети Эдни (Prudie), Кайл Соллер (Francis), Филип Дэвис (Jud Paynter), Руби Бенталл (Verity), Джон Холлинворт (Captain Henshawe)


  • Росс Полдарк возвращается домой с войны, надеясь на спокойную и счастливую жизнь в кругу семьи, и обнаруживает, что отец умер, домом управляют слуги-пьяницы, а невеста Элизабет, уверенная, что он погиб, обручилась с его кузеном.
  • Рейтинг:



  • Качество: WEB-DLRip-AVC, BDRip-AVC
  • Формат: :MPEG-4
  • Видео кодек: AVC
  • Аудио кодек: AC3
  • Видео: 1024x576 (16:9), 2000 kbps, 25 fps, 0,136 bpp
  • Аудио №1: русский / 2.0 / 48 kHz / 384 kbps / 16 bit |[BaibaKo]|
  • Аудио №2: английский / 2.0 / 48 kHz / 384 kbps / 16 bit
  • Релиз от: GEKADOL

    Внимание! Раздача ведётся путём добавления новых серий; при каждом добавлении создаётся новый торрент. Чтобы начать докачку новой серии, пользователям необходимо сделать следующее:
    (1) остановить скачивание,
    (2) удалить старый торрент у себя из клиента (старые серии удалять не надо),
    (3) скачать новый торрент и запустить его у себя в клиенте вместо старого, при этом указать клиенту путь в старую папку куда и должно происходить скачивание новых серий.
    Ваш клиент при этом должен произвести хеширование (проверку) старой папки (если не производит сам - помогите ему сделать это), и будет докачивать только те серии которых у вас ещё нет. Старые серии при этом не удаляются, а продолжают раздаваться!
    Eсли вы уже удалили старые серии, то предотвратить повторную закачку старых серий можно, отжав галочку в соответсвующих местах при запуске нового торрента. По возможности, желательно не удалять старые серии как можно дольше чтобы релизёр не столько продолжал раздавать старые серии, а смог сконцентрироваться на новых.

    General
    Complete name : H:\Полдарк 2 (Poldark)\Poldark.s02e01.WEB-DLRip-AVC.Rus.Eng.BaibaKo.tv.mp4
    Format : MPEG-4
    Format profile : Base Media
    Codec ID : isom (isom/iso2/avc1/mp41)
    File size : 1.10 GiB
    Duration : 56 min
    Overall bit rate : 2 774 kb/s
    Writing application : XviD4PSP 7.0.290 DAILY
    HDVideo : Yes
    encoding_info : MATROSKA / WEBM > MP4 Произвольный / H264 > X264 CBR 2000kbps HQ / AC3 > AC3 CBR 384kbps / AC3 > AC3 CBR 384kbps

    Video
    ID : 1
    Format : AVC
    Format/Info : Advanced Video Codec
    Format profile : High@L4.1
    Format settings, CABAC : Yes
    Format settings, ReFrames : 4 frames
    Codec ID : avc1
    Codec ID/Info : Advanced Video Coding
    Duration : 56 min
    Bit rate : 2 000 kb/s
    Width : 1 024 pixels
    Height : 576 pixels
    Display aspect ratio : 16:9
    Frame rate mode : Constant
    Frame rate : 25.000 FPS
    Color space : YUV
    Chroma subsampling : 4:2:0
    Bit depth : 8 bits
    Scan type : Progressive
    Bits/(Pixel*Frame) : 0.136
    Stream size : 811 MiB (72%)
    Writing library : x264 core 148 r2705M 3f5ed56
    Encoding settings : cabac=1 / ref=3 / deblock=1:-1:-1 / analyse=0x3:0x133 / me=hex / subme=7 / psy=1 / psy_rd=1.00:0.20 / mixed_ref=1 / me_range=16 / chroma_me=1 / trellis=1 / 8x8dct=1 / cqm=0 / deadzone=21,11 / fast_pskip=1 / chroma_qp_offset=-3 / threads=5 / lookahead_threads=1 / sliced_threads=0 / nr=0 / decimate=1 / interlaced=0 / bluray_compat=0 / constrained_intra=0 / bframes=3 / b_pyramid=2 / b_adapt=2 / b_bias=0 / direct=3 / weightb=1 / open_gop=0 / weightp=2 / keyint=250 / keyint_min=25 / scenecut=40 / intra_refresh=0 / rc_lookahead=40 / rc=cbr / mbtree=1 / bitrate=2000 / ratetol=1.0 / qcomp=0.60 / qpmin=0 / qpmax=69 / qpstep=4 / vbv_maxrate=2000 / vbv_bufsize=30000 / nal_hrd=none / filler=0 / ip_ratio=1.40 / aq=1:1.00

    Audio #1
    ID : 2
    Format : AC-3
    Format/Info : Audio Coding 3
    Mode extension : CM (complete main)
    Format settings, Endianness : Big
    Codec ID : ac-3
    Duration : 56 min
    Bit rate mode : Constant
    Bit rate : 384 kb/s
    Channel(s) : 2 channels
    Channel positions : Front: L R
    Sampling rate : 48.0 kHz
    Frame rate : 31.250 FPS (1536 spf)
    Bit depth : 16 bits
    Compression mode : Lossy
    Stream size : 156 MiB (14%)
    Language : Russian
    Default : Yes
    Alternate group : 1

    Audio #2
    ID : 3
    Format : AC-3
    Format/Info : Audio Coding 3
    Mode extension : CM (complete main)
    Format settings, Endianness : Big
    Codec ID : ac-3
    Duration : 56 min
    Bit rate mode : Constant
    Bit rate : 384 kb/s
    Channel(s) : 2 channels
    Channel positions : Front: L R
    Sampling rate : 48.0 kHz
    Frame rate : 31.250 FPS (1536 spf)
    Bit depth : 16 bits
    Compression mode : Lossy
    Stream size : 156 MiB (14%)
    Language : English
    Default : No
    Alternate group : 1



    Скриншоты:
    скриншот   скриншот   скриншот   скриншот   скриншот   скриншот   скриншот  
    скриншот  

    Раздача ведётся путём добавления новых серий. Добавлена 10 серия (30.12.2016).Просьба перекачать торрент файл.

    pb.wtf



  • Скачать Полдарк через торрент http://i3.imageban.ru/out/2016/09/06/ce8ea7a76d52908fd68a9778328e3f63.jpg Скачать фильм Полдарк через торрент бесплантно в хорошем качестве qw.png Росс Полдарк возвращается домой с войны, надеясь на спокойную и счастливую жизнь в кругу семьи, и обнаруживает, что отец умер, ... 10 10 10
    Info! Золотая раздача, скачанное не засчитывается.
    Торрент: Зарегистрирован [2016-12-30 03:22] · скачан: 46 раз
    Статус: √ проверено
    Размер: 10.78 GB
    Как cкачать? Как скачать Полдарк через торрент | qTorrent



    Последний раз редактировалось: GEKADOL (2016-12-30 03:22), всего редактировалось 8 раз(а)

    28-11-2019 20:33  

    Отключить всю рекламу на сайте

    20-09-2016 21:34 Полдарк Скачать торрент  

    вот это сурпрыз! спасибо большое! Ну почему кроме бабаев никто не переводит?pb.wtf



    05-10-2016 12:52 Полдарк Скачать торрент  

    zedsdead писал(а):

    вот это сурпрыз! спасибо большое! Ну почему кроме бабаев никто не переводит?

    Не пользуется спросом) А сериал хороший( А что вас байбаки не устраивают? Быстро, качественно, с душой) Ну рекламка идет, дак за спасибо ток мы работаем) pb.wtf



    29-12-2016 03:59 Полдарк Скачать торрент  

    Я уже давно посмотрел, в переводе от другой студии.pb.wtf



    27-02-2017 10:00 Полдарк Скачать торрент  

    GEKADOL писал(а):

    zedsdead писал(а):

    вот это сурпрыз! спасибо большое! Ну почему кроме бабаев никто не переводит?

    Не пользуется спросом) А сериал хороший( А что вас байбаки не устраивают? Быстро, качественно, с душой) Ну рекламка идет, дак за спасибо ток мы работаем)

    Байбаки как по мне самые отвратные "озвучивальщики", почти на уровне фола. Всегда ищу альтернативу им.pb.wtf



      Дорогой пользователь! Огромная просьба, поблагодарите релизера, оцените раздачу и оставьте свои комментарий, если Вы скачали Полдарк через торрент бесплатно! Внесите свою лепту в развитие PiratBit!
      Комментировать посты могут только пользователи прошедшие не сложную регистрацию
      Показать сообщения:    

      Полдарк через торрент
      Скачать бесплатно Полдарк
      Полдарк скачать торрент
      Полдарк смотреть онлайн
      Cкачать фильм Полдарк бесплатно
      Полдарк скачать торрент в хорошем качестве
      Полдарк смотреть онлайн бесплатно в хорошем качестве


      Вы не можете начинать темы
      Вы не можете отвечать на сообщения
      Вы не можете редактировать свои сообщения
      Вы не можете удалять свои сообщения
      Вы не можете голосовать в опросах
      Вы не можете прикреплять файлы к сообщениям
      Вы можете скачивать файлы