Ссылка на приватное зеркало всего за 1$. Внимание количество ограничено!!!

iTunes

iTunes

iTunes

1

iTunes

iTunes

iTunes

iTunes

iTunes

30
pack

Новость дня

ВАЖНО

!!Акция!!

Alien_RageХит недели

RePack

Resident Evil 21

ИГРА 18+

pack

RePack

jed

!!Акция!!

Alien_Rage

RePack

fifa19

RePack

Assassins Creed: Odyssey

RePack

NEED FOR SPEED™ PAYBACK

4 сезон

9 сезон

Бесстыжие 9 сезон

Все сериалы

все сериалы на PB.wtf

RePack

FAR CRY 5
  

Бабоньки (Антон Коваленко ) [2015, комедия, SATRip] pb.wtf

Бабоньки через торрент pb.wtf

Размер: 1.37 GB | Добавлен: 3 года 8 мес. назад | Торрент скачан:277 раз
Скачать  

06-09-2016 10:18 Бабоньки Скачать торрент  

Бабоньки

Год выпуска: 2015
Страна: Россия
Жанр: комедия
Продолжительность: 01:29:36
Перевод: Оригинал
Режиссер: Антон Коваленко
В ролях: Елена Захарова, Ирина Серова, Алена Галиардт, Максим Пинскер, Сергей Барковский, Бесо Гатаев, Аслан Бижоев, Тина Кузнецова, Влад Сташевский, Алексей Капитонов
Описание:
Сюжет комедии погружает нас в жизнь глухих российских деревень. Туда, куда не добралась цивилизации, и где все еще процветает привозная торговля. В такой деревне живет и работает главная героиня Катя.
Именно она рассказывает как живет цивилизация за пределами деревни, какие отношения у людей там.. где большие города! Она добывает и привозит в деревню самые новые тренды и моду, рассказывает, как быть привлекательными друг для друга — и найти самое главное в жизни — взаимная любовь!
Романтика, новые запахи, модные вещи — вдохновляют на подвиги (в прямом и переносном смысле) героинь фильма. Женщины — готовы на все, чтоб обрести свое женское счастье! Мечта всей Катиной жизни — Влад Сташевский! Похищение Влада Сташевского — генеральный план героинь комедии.
Рейтинг:

Качество: SATRip
Формат: AVI
Видео: XviD, 720x400 (16:9), 1980 kbps, 25 fps, 0,275 bpp
Аудио: AC3 / 2.0 / 48 kHz / 192 kbps /

General
Complete name Babonki.2015.SATRip.Files-x.avi
Format : AVI
Format/Info : Audio Video Interleave
File size : 1.37 GiB
Duration : 1 h 29 min
Overall bit rate : 2 183 kb/s
Writing application : VirtualDubMod 1.5.10.3 | www.virtualdub-fr.org || (build 2550/release)
Writing library : VirtualDubMod build 2550/release

Video
ID : 0
Format : MPEG-4 Visual
Format profile : Advanced Simple@L5
Format settings, BVOP : 1
Format settings, QPel : No
Format settings, GMC : No warppoints
Format settings, Matrix : Custom
Codec ID : XVID
Codec ID/Hint : XviD
Duration : 1 h 29 min
Bit rate : 1 981 kb/s
Width : 720 pixels
Height : 400 pixels
Display aspect ratio : 16:9
Frame rate : 25.000 FPS
Color space : YUV
Chroma subsampling : 4:2:0
Bit depth : 8 bits
Scan type : Progressive
Compression mode : Lossy
Bits/(Pixel*Frame) : 0.275
Stream size : 1.24 GiB (91%)
Writing library : XviD 73

Audio
ID : 1
Format : AC-3
Format/Info : Audio Coding 3
Mode extension : CM (complete main)
Format settings, Endianness : Big
Codec ID : 2000
Duration : 1 h 29 min
Bit rate mode : Constant
Bit rate : 192 kb/s
Channel(s) : 2 channels
Channel positions : Front: L R
Sampling rate : 48.0 kHz
Frame rate : 31.250 FPS (1536 spf)
Compression mode : Lossy
Stream size : 123 MiB (9%)
Alignment : Split accross interleaves
Interleave, duration : 40 ms (1.00 video frame)
Interleave, preload duration : 500 ms
Скриншоты:
pb.wtf



Скачать Бабоньки через торрент http://i3.imageban.ru/out/2016/09/06/057b8b1e9140530ba49ce9db1fd77fe4.jpg Скачать фильм Бабоньки через торрент бесплантно в хорошем качестве Описание: Сюжет комедии погружает нас в жизнь глухих российских деревень. Туда, куда не добралась цивилизации, и где все еще процветает ... 8.5 10 12
Торрент: Зарегистрирован [2016-09-06 10:18] · скачан: 277 раз
Статус: √ проверено
Размер: 1.37 GB
Как cкачать? Как скачать Бабоньки через торрент | qTorrent

28-11-2019 20:33  

Отключить всю рекламу на сайте

15-09-2016 16:06 Бабоньки Скачать торрент  

Я коротко.Продержался 30 мин.Тупая и не смешная комедия.pb.wtf



    Дорогой пользователь! Огромная просьба, поблагодарите релизера, оцените раздачу и оставьте свои комментарий, если Вы скачали Бабоньки через торрент бесплатно! Внесите свою лепту в развитие PiratBit!
    Комментировать посты могут только пользователи прошедшие не сложную регистрацию
    Показать сообщения:    

    Бабоньки через торрент
    Скачать бесплатно Бабоньки
    Бабоньки скачать торрент
    Бабоньки смотреть онлайн
    Cкачать фильм Бабоньки бесплатно
    Бабоньки скачать торрент в хорошем качестве
    Бабоньки смотреть онлайн бесплатно в хорошем качестве


    Вы не можете начинать темы
    Вы не можете отвечать на сообщения
    Вы не можете редактировать свои сообщения
    Вы не можете удалять свои сообщения
    Вы не можете голосовать в опросах
    Вы не можете прикреплять файлы к сообщениям
    Вы можете скачивать файлы