1 сезон

1 сезон

iTunes

1

КиноПоиск HD

Кинопоиск HD

iTunes

13

1 сезон

RePack

30

Новинка

ВАЖНО

ИГРА 18+

pack

RePack

MK11
pack

Легкие деньги

RePack

jed

RePack

fifa19

RePack

RDR2

RePack

NEED FOR SPEED™ PAYBACK

4 сезон

9 сезон

Бесстыжие 9 сезон

Все сериалы

все сериалы на PB.wtf

RePack

FAR CRY 5
  
Magnet ссылка

С меня хватит / Enough (Майкл Эптид) [2002 г., триллер, драма, криминал, HDTVRip] DUB pb.wtf

С меня хватит через торрент pb.wtf

Размер: 1.45 GB | Добавлен: 4 года 7 мес. назад | Торрент скачан:53 раза
Скачать  

06-09-2016 10:52 С меня хватит Скачать торрент  

С меня хватит / Enough
Год выпуска: 2002
Страна: США
Жанр: триллер, драма, криминал
Продолжительность: 01:50:22
Перевод: Дубляж

Режиссер: Майкл Эптид
Продюссер: Роб Кауэн, Ирвин Уинклер, Джинни Ким
Сценарий: Николас Казан

Бюджет: $38 000 000
Премьера в мире: 24 мая 2002



В ролях: Дженнифер Лопес, Билл Кэмпбелл, Тесса Аллен, Джульетт Льюис, Дэн Футтерман, Ноа Уайли, Фред Уорд, Джанет Кэрролл, Билл Коббс, Кристофер Мехер, Брюс А. Янг, Брюс Френч, Рубен Мадера, Дэн Мартин, Джефф Кобер, Брент Секстон, Майкл П. Бирн, Лейф Ридделл, Риган Форман, Сандра Нельсон, Линн Мари Стюарт

Описание: Жизнь официантки Слим коренным образом меняется, когда она встречает богатого незнакомца Митча. Они влюбляются, женятся, покупают красивый домик и у них рождается дочка. Но восхитительной счастливой новой жизни Слим тоже приходит конец. Ее муж далеко не совершенство, и Слим узнает о его изменах. Оскорбленная поведением мужа, Слим пытается убежать от него, а ожесточившийся Митч теперь представляет смертельную угрозу ей и ее пятилетней дочери. Скрываясь от мужа, Слим решает принять серьезные меры. Она прячет дочь, а сама меняется морально и физически, намереваясь показать Митчу, что с нее довольно.

Качество: HDTVRip
Формат: AVI
Видео кодек: XviD
Аудио кодек: AC3
Видео: XviD, 1420 Кбит/с, 720x304, 25 кадр/с
Аудио: АС3, 6 ch, 448 Кбит/с, 48 kHz
Релиз от: Koenig
Общее
Полное имя : Enough.2002.HDTVRip.avi
Формат : AVI
Формат/Информация : Audio Video Interleave
Размер файла : 1,45 Гбайт
Продолжительность : 1 ч. 50 м.
Общий поток : 1878 Кбит/сек
Программа кодирования : VirtualDubMod 1.5.10.2 (build 2540/release)
Библиотека кодирования : VirtualDubMod build 2540/release

Видео
Идентификатор : 0
Формат : MPEG-4 Visual
Профиль формата : Advanced Simple@L5
Параметр BVOP формата : 1
Параметр QPel формата : Нет
Параметр GMC формата : Без точки перехода
Параметр матрицы формата : Выборочная
Идентификатор кодека : XVID
Идентификатор кодека/Подсказка : XviD
Продолжительность : 1 ч. 50 м.
Битрейт : 1420 Кбит/сек
Ширина : 720 пикселей
Высота : 304 пикселя
Соотношение сторон : 2,35:1
Частота кадров : 25,000 кадров/сек
Цветовое пространство : YUV
Субдискретизация насыщенности : 4:2:0
Битовая глубина : 8 бит
Тип развёртки : Прогрессивная
Метод сжатия : С потерями
Бит/(Пиксели*Кадры) : 0.260
Размер потока : 1,09 Гбайт (76%)
Библиотека кодирования : XviD 1.2.0.dev47 (UTC 2006-11-01)

Аудио
Идентификатор : 1
Формат : AC-3
Формат/Информация : Audio Coding 3
Расширение режима : CM (complete main)
Параметр Endianness формата : Big
Идентификатор кодека : 2000
Продолжительность : 1 ч. 50 м.
Вид битрейта : Постоянный
Битрейт : 448 Кбит/сек
Каналы : 6 каналов
Расположение каналов : Front: L C R, Side: L R, LFE
Частота : 48,0 КГц
Частота кадров : 31,250 кадров/сек (1536 spf)
Метод сжатия : С потерями
Задержка видео : 16 мс.
Размер потока : 354 Мбайт (24%)
Выравнивание : Разделение по промежуткам
Продолжительность промежутка : 40 мс. (1,00 видеокадр)
Время предзагрузки промежутка : 500 мс.

С меня хватит скачать торрент

pb.wtf



Скачать С меня хватит через торрент https://pic1.kartinco.top/images/10/l1zxd.jpg Скачать фильм С меня хватит через торрент бесплантно в хорошем качестве Описание: Жизнь официантки Слим коренным образом меняется, когда она встречает богатого незнакомца Митча. Они влюбляются, женятся, покупают ... 5 10 1
Торрент: Зарегистрирован [2016-09-06 10:52] · скачан: 53 раз
Статус: √ проверено
Размер: 1.45 GB
Как cкачать? Как скачать С меня хватит через торрент | UTorrent

% Раздел Тема Автор DL S | L
Фильмы (WEB-DL 720p, 1080p) [ 12.49 GB ] С меня хватит / Enough [2002 WEB-DL 1080p] DUB + MVO + AVO - KORSAR kisa1980 Скачать
1 | 0
Фильмы (WEB-DL 720p, 1080p) [ 3.93 GB ] С меня хватит / Enough [2002 HDTVRip 720p] DUB AVO koenig Скачать
1 | 0
Фильмы 2001-2005 [ 1.47 GB ] С меня хватит / Enough [2002 DVDRip] DUB + Rus Sub + Eng Sub -=Cherry=- Скачать
1 | 0

28-11-2019 20:33  

Отключить всю рекламу на сайте

    Дорогой пользователь! Огромная просьба, поблагодарите релизера, оцените раздачу и оставьте свои комментарий, если Вы скачали С меня хватит через торрент бесплатно! Внесите свою лепту в развитие PiratBit!
    Комментировать посты могут только пользователи прошедшие не сложную регистрацию
    Показать сообщения:    

    С меня хватит через торрент
    Скачать бесплатно С меня хватит
    С меня хватит скачать торрент
    С меня хватит смотреть онлайн
    Cкачать фильм С меня хватит бесплатно
    С меня хватит скачать торрент в хорошем качестве
    С меня хватит смотреть онлайн бесплатно в хорошем качестве


    Вы не можете начинать темы
    Вы не можете отвечать на сообщения
    Вы не можете редактировать свои сообщения
    Вы не можете удалять свои сообщения
    Вы не можете голосовать в опросах
    Вы не можете прикреплять файлы к сообщениям
    Вы можете скачивать файлы