новый адрес
Мега распродажа FORZA HORIZON 4 ULTIMATE+ВСЕ DLC+ОНЛАЙН всего за 499р. 349 руб. (супер цена). Внимание количество ограничено!!!

iTunes

1+1

iTunes

мы

iTunes

1

iTunes

Чернобыль

iTunes

Ральф против интернета

Лицензия

ПШазам

Лицензия

Оно 2

Лицензия

30
pack

ВАЖНО

!!Акция!!

Alien_RageХит недели

RePack

Resident Evil 21

ИГРА 18+

pack

RePack

Metro:Exodus

!!Акция!!

Alien_Rage

RePack

fifa19

RePack

Assassins Creed: Odyssey

RePack

NEED FOR SPEED™ PAYBACK

3 сезон

9 сезон

Бесстыжие 9 сезон

Все сериалы

все сериалы на PB.wtf

RePack

FAR CRY 5
Ребята, катастрофически не хватает 1900р. для оплаты серверов за Октябрь (всвязи с блокировками трафик упал в 3 раза), 1-2р., выручайте.
  

Будьте моим мужем (Алла Сурикова) [1981 г., драма, мелодрама, комедия, WEB-DLRip] pb.wtf

Будьте моим мужем через торрент pb.wtf

Размер: 710 MB | Добавлен: 3 года 2 мес. назад | Торрент скачан:29 раз
Скачать  

06-09-2016 11:27 Будьте моим мужем Скачать торрент  

Будьте моим мужем
Год выпуска: 1981
Страна: СССР
Жанр: драма, мелодрама, комедия
Продолжительность: 01:22:08

Режиссер: Алла Сурикова
Сценарий: Эдуард Акопов

Премьера в мире: 1 января 1982




В ролях: Елена Проклова, Андрей Миронов, Филипп Адамович, Нина Русланова, Наталья Крачковская, Владимир Басов ст., Антон Табаков, Баадур Цуладзе, Олег Анофриев, Николай Гринько, Георгий Штиль, Леонард Саркисов, Михаил Светин, Анна Варпаховская, Валентина Воилкова, Михаил Херхеулидзе, Туфа Фазылова, Семён Фарада, Абдулхайр Касымов, Ольга Анохина

Описание: Детский врач отправляется в отпуск на Юг, где его услуги в качестве... мужа понадобились молодой и очень красивой женщине. Дело в том, что одной с ребенком ей никто сдавать квартиру в курортном городе не хотел. Нравы тогда такие были. Вот ей и понадобился человек, который мог бы разыграть из себя ее мужа для поселения в частном секторе. Ну а как у них сложатся отношения и в других областях, зритель предпочтет узнать сам. Легкая музыкальная комедия с прекрасными актерами.

Качество: WEB-DLRip
Формат: AVI
Видео кодек: XviD
Аудио кодек: MP3
Видео: XviD, 1071 Кбит/с, 640x464, 25 кадр/с
Аудио: MP3, 2 ch, 128 Кбит/с, 44.1 kHz
Релиз от: Koenig

Общее
Полное имя : Budte.moim.muzhem.1982.WEB-DLRip.avi
Формат : AVI
Формат/Информация : Audio Video Interleave
Размер файла : 710 Мбайт
Продолжительность : 1 ч. 22 м.
Общий поток : 1208 Кбит/сек
Программа кодирования : VirtualDubMod 1.5.10.2 (build 2540/release)
Библиотека кодирования : VirtualDubMod build 2540/release

Видео
Идентификатор : 0
Формат : MPEG-4 Visual
Профиль формата : Advanced Simple@L5
Параметр BVOP формата : 1
Параметр QPel формата : Нет
Параметр GMC формата : Без точки перехода
Параметр матрицы формата : Выборочная
Идентификатор кодека : XVID
Идентификатор кодека/Подсказка : XviD
Продолжительность : 1 ч. 22 м.
Битрейт : 1071 Кбит/сек
Ширина : 640 пикселей
Высота : 464 пикселя
Соотношение сторон : 1,379
Частота кадров : 25,000 кадров/сек
Цветовое пространство : YUV
Субдискретизация насыщенности : 4:2:0
Битовая глубина : 8 бит
Тип развёртки : Прогрессивная
Метод сжатия : С потерями
Бит/(Пиксели*Кадры) : 0.144
Размер потока : 629 Мбайт (89%)
Библиотека кодирования : XviD 1.2.0.dev47 (UTC 2006-11-01)

Аудио
Идентификатор : 1
Формат : MPEG Audio
Версия формата : Version 1
Профиль формата : Layer 3
Режим : Joint stereo
Расширение режима : MS Stereo
Идентификатор кодека : 55
Идентификатор кодека/Подсказка : MP3
Продолжительность : 1 ч. 22 м.
Вид битрейта : Постоянный
Битрейт : 128 Кбит/сек
Каналы : 2 канала
Частота : 44,1 КГц
Метод сжатия : С потерями
Размер потока : 75,2 Мбайт (11%)
Выравнивание : Разделение по промежуткам
Продолжительность промежутка : 40 мс. (1,00 видеокадр)
Время предзагрузки промежутка : 500 мс.
Библиотека кодирования : LAME3.99r
Настройки программы : -m j -V 4 -q 3 -lowpass 17 -b 128

pb.wtf



Скачать Будьте моим мужем через торрент http://pic1.kartinco.top/images/10/w2hy5.jpg Скачать фильм Будьте моим мужем через торрент бесплантно в хорошем качестве Описание: Детский врач отправляется в отпуск на Юг, где его услуги в качестве... мужа понадобились молодой и очень красивой женщине. Дело в ... 10 10 1
Торрент: Зарегистрирован [2016-09-06 11:27] · скачан: 29 раз
Статус: √ проверено
Размер: 710 MB
Как cкачать? Как скачать Будьте моим мужем через торрент | qTorrent

% Раздел Тема Автор DL S | L
Кино СССР [ 2.43 GB ] Будьте моим мужем [1981 HDRip-AVC] smaster Скачать
1 | 0


>> Регистрируемся здесь <<






Отзывы и комментарии о схеме читаем и пишем здесь: ---> Отзывы и комментарии о схеме

Новые благодарочки в телеграм довольных пользователей:
скриншот   скриншот   скриншот   скриншот   скриншот
    Дорогой пользователь! Огромная просьба, поблагодарите релизера, оцените раздачу и оставьте свои комментарий, если Вы скачали Будьте моим мужем через торрент бесплатно! Внесите свою лепту в развитие PiratBit!
    Комментировать посты могут только пользователи прошедшие не сложную регистрацию
    Показать сообщения:    

    Будьте моим мужем через торрент
    Скачать бесплатно Будьте моим мужем
    Будьте моим мужем скачать торрент
    Будьте моим мужем смотреть онлайн
    Cкачать фильм Будьте моим мужем бесплатно
    Будьте моим мужем скачать торрент в хорошем качестве
    Будьте моим мужем смотреть онлайн бесплатно в хорошем качестве


    Вы не можете начинать темы
    Вы не можете отвечать на сообщения
    Вы не можете редактировать свои сообщения
    Вы не можете удалять свои сообщения
    Вы не можете голосовать в опросах
    Вы не можете прикреплять файлы к сообщениям
    Вы можете скачивать файлы