MEGA SALE -50% FORZA HORIZON 4 ULTIMATE+ВСЕ DLC+ОНЛАЙН всего за 599р. 299 руб. (супер цена). Внимание количество ограничено!!!

iTunes

1+1

iTunes

мы

iTunes

1

iTunes

Чернобыль

iTunes

Ральф против интернета

Лицензия

ПШазам

Лицензия

Игра престолов

Лицензия

30
pack

ВАЖНО

!!Акция!!

Alien_RageХит недели

RePack

Resident Evil 21

ИГРА 18+

pack

RePack

Metro:Exodus

!!Акция!!

Alien_Rage

RePack

fifa19

RePack

Assassins Creed: Odyssey

RePack

NEED FOR SPEED™ PAYBACK

3 сезон

9 сезон

Бесстыжие 9 сезон

Все сериалы

все сериалы на PB.wtf

RePack

FAR CRY 5
Ребята, катастрофически не хватает 7730р. для оплаты серверов за ИЮЛЬ (всвязи с блокировками трафик упал в 3 раза), 1-2р., выручайте.
  

Крудсы: Начало / Семейка Крудс. Начало / Dawn of the Croods / Сезон: 2 / Серии 1-13 из 13 (Чонг Ли / Chong Lee, Алекс Альмагер / Alex Almaguer) [2016, США, мультфильм, комедия, семейный, WEBRip 720p] MVO [NewStudio] pb.wtf

Крудсы: Начало через торрент pb.wtf

Размер: 4.56 GB | Добавлен: 2 года 11 мес. назад | Торрент скачан:47 раз
Скачать  

07-09-2016 03:31 Крудсы: Начало Скачать торрент  

Крудсы: Начало / Семейка Крудс. Начало / Dawn of the Croods


  • Год выпуска: 2016
  • Страна: США
  • Жанр: мультфильм, комедия, семейный
  • Продолжительность: 00:23:11 (Серия)
  • Перевод: Профессиональный многоголосый
  • Режиссер: Чонг Ли / Chong Lee, Алекс Альмагер / Alex Almaguer, Стефани Арнетт / Stephanie Arnett
  • В ролях:

    Дэн Милано (Grug), Кри Саммер (Ugga), А.Дж. Локасцио (Thunk), Лорейн Ньюмен (Gran), Стефани Николь Лемелин (Eep), Ди Брэдли Бейкер (Bulk), Грэй Гриффин (Sandy), Dominic Catrambone (Sulk), Ана Гастейер (Meep), Томас Леннон (Munk), Крис Парнелл (Snoot)


  • Землетрясение уничтожило дом доисторической семьи, и теперь им придётся искать другое пристанище. А вокруг новый и опасный мир! Только вместе они смогут выжить и достичь своей цели...
  • Рейтинг:



  • Качество: WEBRip 720р
  • Формат: :MKV
  • Видео кодек: AVC
  • Аудио кодек: AAC LC, AC3
  • Видео: 1280x720 (16:9), 1682 kbps, 23,976 fps, 0,076 bpp
  • Аудио №1: русский / 2.0 / 48 kHz / 192 kbps |[NewStudio]|
  • Аудио №2: английский / 2.0 / 44 kHz / 162 kbps
  • Релиз от: GEKADOL

    Код:

    Внимание! Раздача ведётся путём добавления новых серий; при каждом добавлении создаётся новый торрент. Чтобы начать докачку новой серии, пользователям необходимо сделать следующее:
    (1) остановить скачивание,
    (2) удалить старый торрент у себя из клиента (старые серии удалять не надо),
    (3) скачать новый торрент и запустить его у себя в клиенте вместо старого, при этом указать клиенту путь в старую папку куда и должно происходить скачивание новых серий.
    Ваш клиент при этом должен произвести хеширование (проверку) старой папки (если не производит сам - помогите ему сделать это), и будет докачивать только те серии которых у вас ещё нет. Старые серии при этом не удаляются, а продолжают раздаваться!
    Eсли вы уже удалили старые серии, то предотвратить повторную закачку старых серий можно, отжав галочку в соответсвующих местах при запуске нового торрента. По возможности, желательно не удалять старые серии как можно дольше чтобы релизёр не столько продолжал раздавать старые серии, а смог сконцентрироваться на новых.


    Код:

    General
    Unique ID                                : 192876386348943686053729242423120674699 (0x911AA40BB21DA9CBA4F10516E8B4BF8B)
    Complete name                            : D:\Фильмы\Крудсы- Начало (Сезон 2)\Dawn.of.the.Croods.s02e02.WEB.720p.NewStudio.TV.mkv
    Format                                   : Matroska
    Format version                           : Version 4 / Version 2
    File size                                : 338 MiB
    Duration                                 : 23 min
    Overall bit rate                         : 2 039 kb/s
    Encoded date                             : UTC 2016-09-07 00:25:30
    Writing application                      : mkvmerge v8.2.0 ('World of Adventure') 32bit
    Writing library                          : libebml v1.3.1 + libmatroska v1.4.2

    Video
    ID                                       : 1
    Format                                   : AVC
    Format/Info                              : Advanced Video Codec
    Format profile                           : High@L4.1
    Format settings, CABAC                   : Yes
    Format settings, ReFrames                : 9 frames
    Codec ID                                 : V_MPEG4/ISO/AVC
    Duration                                 : 23 min
    Bit rate                                 : 1 683 kb/s
    Width                                    : 1 280 pixels
    Height                                   : 720 pixels
    Display aspect ratio                     : 16:9
    Frame rate mode                          : Constant
    Frame rate                               : 23.976 (24000/1001) FPS
    Color space                              : YUV
    Chroma subsampling                       : 4:2:0
    Bit depth                                : 8 bits
    Scan type                                : Progressive
    Bits/(Pixel*Frame)                       : 0.076
    Stream size                              : 279 MiB (83%)
    Writing library                          : x264 core 142 r2479 dd79a61
    Encoding settings                        : cabac=1 / ref=9 / deblock=1:1:1 / analyse=0x3:0x133 / me=umh / subme=9 / psy=1 / psy_rd=0.40:0.00 / mixed_ref=1 / me_range=16 / chroma_me=1 / trellis=2 / 8x8dct=1 / cqm=0 / deadzone=21,11 / fast_pskip=1 / chroma_qp_offset=-2 / threads=6 / lookahead_threads=1 / sliced_threads=0 / nr=0 / decimate=1 / interlaced=0 / bluray_compat=0 / constrained_intra=0 / bframes=5 / b_pyramid=2 / b_adapt=2 / b_bias=0 / direct=3 / weightb=1 / open_gop=0 / weightp=2 / keyint=240 / keyint_min=24 / scenecut=40 / intra_refresh=0 / rc_lookahead=60 / rc=crf / mbtree=1 / crf=18.0 / qcomp=0.60 / qpmin=0 / qpmax=69 / qpstep=4 / vbv_maxrate=62500 / vbv_bufsize=78125 / crf_max=0.0 / nal_hrd=none / filler=0 / ip_ratio=1.40 / aq=1:0.60
    Default                                  : Yes
    Forced                                   : No
    Color range                              : Limited
    Color primaries                          : BT.709
    Transfer characteristics                 : BT.709
    Matrix coefficients                      : BT.709

    Audio #1
    ID                                       : 2
    Format                                   : AC-3
    Format/Info                              : Audio Coding 3
    Mode extension                           : CM (complete main)
    Format settings, Endianness              : Big
    Codec ID                                 : A_AC3
    Duration                                 : 23 min
    Bit rate mode                            : Constant
    Bit rate                                 : 192 kb/s
    Channel(s)                               : 2 channels
    Channel positions                        : Front: L R
    Sampling rate                            : 48.0 kHz
    Frame rate                               : 31.250 FPS (1536 spf)
    Compression mode                         : Lossy
    Stream size                              : 31.8 MiB (9%)
    Title                                    : NewStudio.TV
    Language                                 : Russian
    Default                                  : Yes
    Forced                                   : No

    Audio #2
    ID                                       : 3
    Format                                   : AAC
    Format/Info                              : Advanced Audio Codec
    Format profile                           : LC
    Codec ID                                 : A_AAC
    Duration                                 : 23 min
    Bit rate                                 : 162 kb/s
    Channel(s)                               : 2 channels
    Channel positions                        : Front: L R
    Sampling rate                            : 44.1 kHz
    Frame rate                               : 43.066 FPS (1024 spf)
    Compression mode                         : Lossy
    Stream size                              : 26.9 MiB (8%)
    Language                                 : English
    Default                                  : No
    Forced                                   : No






    Скриншоты:
    скриншот   скриншот   скриншот   скриншот   скриншот   скриншот   скриншот  
    скриншот  

    Раздача ведётся путём добавления новых серий. Добавлена 13 серия (18.09.2016).Просьба перекачать торрент файл.

    pb.wtf



  • Скачать Крудсы: Начало через торрент http://i3.imageban.ru/out/2016/09/07/97c61ad241426ef5d20f6c0a0000daef.png Скачать фильм Крудсы: Начало через торрент бесплантно в хорошем качестве qw.png Землетрясение уничтожило дом доисторической семьи, и теперь им придётся искать другое пристанище. А вокруг новый и опасный мир! ... 9.9 10 12
    Info! Золотая раздача, скачанное не засчитывается.
    Торрент: Зарегистрирован [2016-09-18 01:38] · скачан: 47 раз
    Статус: √ проверено
    Размер: 4.56 GB
    Как cкачать? Как скачать Крудсы: Начало через торрент | qTorrent


    >> Регистрируемся здесь <<






    Отзывы и комментарии о схеме читаем и пишем здесь: ---> Отзывы и комментарии о схеме

    Новые благодарочки в телеграм довольных пользователей:
    скриншот   скриншот   скриншот   скриншот   скриншот
      Дорогой пользователь! Огромная просьба, поблагодарите релизера, оцените раздачу и оставьте свои комментарий, если Вы скачали Крудсы: Начало через торрент бесплатно! Внесите свою лепту в развитие PiratBit!
      Комментировать посты могут только пользователи прошедшие не сложную регистрацию
      Показать сообщения:    

      Крудсы: Начало через торрент
      Скачать бесплатно Крудсы: Начало
      Крудсы: Начало скачать торрент
      Крудсы: Начало смотреть онлайн
      Cкачать фильм Крудсы: Начало бесплатно
      Крудсы: Начало скачать торрент в хорошем качестве
      Крудсы: Начало смотреть онлайн бесплатно в хорошем качестве


      Вы не можете начинать темы
      Вы не можете отвечать на сообщения
      Вы не можете редактировать свои сообщения
      Вы не можете удалять свои сообщения
      Вы не можете голосовать в опросах
      Вы не можете прикреплять файлы к сообщениям
      Вы можете скачивать файлы