Ссылка на приватное зеркало нашего сайта всего за 1$. Внимание количество ограничено!!!

2 сезон

iTunes

1 сезон

1

iTunes

iTunes

iTunes

1 сезон

RePack

30

ИГРА 18+

pack

ВАЖНО

!!Акция!!

Alien_RageХит недели

RePack

MK11
pack

Забери бонус

RePack

jed

!!Акция!!

Alien_Rage

RePack

fifa19

RePack

Assassins Creed: Odyssey

RePack

NEED FOR SPEED™ PAYBACK

4 сезон

9 сезон

Бесстыжие 9 сезон

Все сериалы

все сериалы на PB.wtf

RePack

FAR CRY 5
  

Angry Birds в кино / Angry Birds (Клэй Кэйтис , Фергал Рейли ) [2016, мультфильм, боевик, комедия, BDRip-AVC от potroks] Dub [Лицензия] pb.wtf

Angry Birds в кино через торрент pb.wtf

Размер: 2.91 GB | Добавлен: 4 года 1 мес. назад | Торрент скачан:452 раза
Скачать  

07-09-2016 16:23 Angry Birds в кино Скачать торрент  

Angry Birds в кино / Angry Birds

Год выпуска: 2016
Страна: США, Финляндия / Sony Pictures Animation...
Жанр: мультфильм, боевик, комедия, семейный
Продолжительность: 01:37:13
Перевод: Дубляж [Blu-ray NORDiC]
Субтитры: русские (полные + форс.), английские (Full + SDH)
Навигация по главам: есть
Режиссер: Клэй Кэйтис , Фергал Рейли
В ролях:

Джейсон Судейкис (Red, озвучка), Джош Гад (Chuck, озвучка), Дэнни МакБрайд (Bomb, озвучка), Майя Рудольф (Matilda, озвучка), Билл Хейдер (Leonard, озвучка), Питер Динклэйдж (Mighty Eagle, озвучка), Шон Пенн (Terence, озвучка), Кигэн-Майкл Ки (Judge Peckinpah, озвучка), Кейт МакКиннон (Stella / Eva the Birthday Mom, озвучка), Тони Хейл (Ross / Cyrus / Mime, озвучка), Хэннибал Бёресс (Edward the Birthday Dad, озвучка), Айк Баринхолц (Tiny, озвучка)
Описание: Фильм расскажет о том, как началось знаменитое противостояние птичек и свинок, персонажей популярной компьютерной игры, а также раскроет некоторые секреты любимых героев.

Качество: BDRip-AVC
Формат: MKV
Видео: AVC, 1024x552 (1.855), 3389 kbps, 23,976 fps, 0,250 bpp
Аудио №1: AC3 / 5.1 / 48 kHz / 448 kbps / 16 bit | RUS
Аудио №2: AC3 / 5.1 / 48 kHz / 448 kbps / 16 bit | ENG

Код:

General
Unique ID                                : 250781526063722849357175142843544156415 (0xBCAAC3DA9D05577F8230C0DB677AB8FF)
Complete name                            : N:\Мульты\Angri.Berds.v.Kino.2016.DUAL.BDRip.x264.-HELLYWOOD.mkv
Format                                   : Matroska
Format version                           : Version 4 / Version 2
File size                                : 2.91 GiB
Duration                                 : 1 h 37 min
Overall bit rate                         : 4 287 kb/s
Movie name                               : The Angry Birds Movie (2016)
Encoded date                             : UTC 2016-09-07 16:14:21
Writing application                      : mkvmerge v5.9.0 ('On The Loose') built on Dec 15 2012 16:39:58
Writing library                          : libebml v1.3.0 + libmatroska v1.4.0

Video
ID                                       : 1
Format                                   : AVC
Format/Info                              : Advanced Video Codec
Format profile                           : High@L4.1
Format settings, CABAC                   : Yes
Format settings, ReFrames                : 10 frames
Codec ID                                 : V_MPEG4/ISO/AVC
Duration                                 : 1 h 37 min
Bit rate                                 : 3 389 kb/s
Width                                    : 1 024 pixels
Height                                   : 552 pixels
Display aspect ratio                     : 1.85:1
Frame rate mode                          : Constant
Frame rate                               : 23.976 (24000/1001) FPS
Color space                              : YUV
Chroma subsampling                       : 4:2:0
Bit depth                                : 8 bits
Scan type                                : Progressive
Bits/(Pixel*Frame)                       : 0.250
Stream size                              : 2.24 GiB (77%)
Title                                    : potroks
Writing library                          : x264 core 146 r2538 121396c
Encoding settings                        : cabac=1 / ref=10 / deblock=1:-1:-1 / analyse=0x3:0x113 / me=umh / subme=11 / psy=1 / psy_rd=1.05:0.10 / mixed_ref=1 / me_range=48 / chroma_me=1 / trellis=2 / 8x8dct=1 / cqm=0 / deadzone=21,11 / fast_pskip=0 / chroma_qp_offset=-3 / threads=9 / lookahead_threads=2 / sliced_threads=0 / nr=0 / decimate=0 / interlaced=0 / bluray_compat=0 / constrained_intra=0 / bframes=11 / b_pyramid=2 / b_adapt=2 / b_bias=0 / direct=3 / weightb=1 / open_gop=0 / weightp=2 / keyint=240 / keyint_min=23 / scenecut=40 / intra_refresh=0 / rc_lookahead=60 / rc=2pass / mbtree=0 / bitrate=3389 / ratetol=1.0 / qcomp=0.70 / qpmin=0 / qpmax=69 / qpstep=4 / cplxblur=20.0 / qblur=0.5 / vbv_maxrate=14000 / vbv_bufsize=14000 / nal_hrd=none / filler=0 / ip_ratio=1.40 / pb_ratio=1.30 / aq=1:0.80
Language                                 : English
Default                                  : Yes
Forced                                   : No

Audio #1
ID                                       : 2
Format                                   : AC-3
Format/Info                              : Audio Coding 3
Mode extension                           : CM (complete main)
Format settings, Endianness              : Big
Codec ID                                 : A_AC3
Duration                                 : 1 h 37 min
Bit rate mode                            : Constant
Bit rate                                 : 448 kb/s
Channel(s)                               : 6 channels
Channel positions                        : Front: L C R, Side: L R, LFE
Sampling rate                            : 48.0 kHz
Frame rate                               : 31.250 FPS (1536 spf)
Compression mode                         : Lossy
Stream size                              : 312 MiB (10%)
Title                                    : Dub | DD 5.1 @ 448 kbps - Blu-ray NORDiC
Language                                 : Russian
Default                                  : Yes
Forced                                   : No

Audio #2
ID                                       : 3
Format                                   : AC-3
Format/Info                              : Audio Coding 3
Mode extension                           : CM (complete main)
Format settings, Endianness              : Big
Codec ID                                 : A_AC3
Duration                                 : 1 h 37 min
Bit rate mode                            : Constant
Bit rate                                 : 448 kb/s
Channel(s)                               : 6 channels
Channel positions                        : Front: L C R, Side: L R, LFE
Sampling rate                            : 48.0 kHz
Frame rate                               : 31.250 FPS (1536 spf)
Compression mode                         : Lossy
Stream size                              : 312 MiB (10%)
Title                                    : Original | DD 5.1 @ 448 kbps
Language                                 : English
Default                                  : No
Forced                                   : No

Text #1
ID                                       : 4
Format                                   : UTF-8
Codec ID                                 : S_TEXT/UTF8
Codec ID/Info                            : UTF-8 Plain Text
Title                                    : Forced
Language                                 : Russian
Default                                  : Yes
Forced                                   : No

Text #2
ID                                       : 5
Format                                   : UTF-8
Codec ID                                 : S_TEXT/UTF8
Codec ID/Info                            : UTF-8 Plain Text
Title                                    : iTunes
Language                                 : Russian
Default                                  : No
Forced                                   : No

Text #3
ID                                       : 6
Format                                   : UTF-8
Codec ID                                 : S_TEXT/UTF8
Codec ID/Info                            : UTF-8 Plain Text
Title                                    : Full
Language                                 : English
Default                                  : No
Forced                                   : No

Text #4
ID                                       : 7
Format                                   : UTF-8
Codec ID                                 : S_TEXT/UTF8
Codec ID/Info                            : UTF-8 Plain Text
Title                                    : SDH
Language                                 : English
Default                                  : No
Forced                                   : No

Menu
00:00:00.000                             : en:(01)00:00:00:000
00:07:05.091                             : en:(02)00:07:05:091
00:13:38.107                             : en:(03)00:13:38:107
00:20:22.637                             : en:(04)00:20:22:637
00:25:38.619                             : en:(05)00:25:38:619
00:32:57.392                             : en:(06)00:32:57:392
00:38:34.811                             : en:(07)00:38:34:811
00:41:36.327                             : en:(08)00:41:36:327
00:47:12.954                             : en:(09)00:47:12:954
00:52:04.286                             : en:(10)00:52:04:286
00:56:07.697                             : en:(11)00:56:07:697
00:59:08.710                             : en:(12)00:59:08:710
01:03:43.318                             : en:(13)01:03:43:318
01:11:45.801                             : en:(14)01:11:45:801
01:18:55.521                             : en:(15)01:18:55:521
01:23:54.820                             : en:(16)01:23:54:820

pb.wtf



Скачать Angry Birds в кино через торрент http://i83.fastpic.ru/big/2016/0907/d7/78186b1b5715c993cad16d8252f8a1d7.png Скачать фильм Angry Birds в кино через торрент бесплантно в хорошем качестве Описание: Фильм расскажет о том, как началось знаменитое противостояние птичек и свинок, персонажей популярной компьютерной игры, а также ... 10 10 4
Info! Золотая раздача, скачанное не засчитывается.
Торрент: Зарегистрирован [2016-09-07 16:23] · скачан: 452 раз
Статус: √ проверено
Размер: 2.91 GB
Как cкачать? Как скачать Angry Birds в кино через торрент | qTorrent

% Раздел Тема Автор DL S | L
Мультфильмы (48-60 fps) [ 15.43 GB ] Angry Birds 2 в кино / The Angry Birds Movie 2 [2019 мультфильм BDRip 1080p 60 fps] DUB sheker187 Скачать
1 | 0
Ultra HD (UHD: 2K, 4K, 8K) [ 14.32 GB ] Angry Birds 2 в кино / The Angry Birds Movie 2 [2019 мультфильм UHD BDRip 2160p] [SDR] DUB bober100 Скачать
2 | 0
Ultra HD (UHD: 2K, 4K, 8K) [ 9.87 GB ] Angry Birds 2 в кино / The Angry Birds Movie 2 [2019 мультфильм UHD BDRip 2160p] DUB sheker187 Скачать
3 | 0
Ultra HD (UHD: 2K, 4K, 8K) [ 37.6 GB ] Angry Birds 2 в кино / The Angry Birds Movie 2 [2019 мультфильм UHD BDRemux 2160p] DUB bober100 Скачать
1 | 0
Иностранные мультфильмы [ 1.42 GB ] Angry Birds 2 в кино / The Angry Birds Movie 2 [2019 мультфильм BDRip] - Twi7ter Скачать
54 | 0
Иностранные мультфильмы [ 1.46 GB ] Angry Birds 2 в кино / The Angry Birds Movie 2 [2019 мультфильм HDRip] bober100 Скачать
29 | 1
Зарубежные Мультфильмы (BDRip 1080p, 720p, Blu-ray, BD-Remux) [ 8.38 GB ] Angry Birds 2 в кино / The Angry Birds Movie 2 [2019 мультфильм BDRip 1080p] DUB bober100 Скачать
4 | 0

28-11-2019 20:33  

Отключить всю рекламу на сайте

    Дорогой пользователь! Огромная просьба, поблагодарите релизера, оцените раздачу и оставьте свои комментарий, если Вы скачали Angry Birds в кино через торрент бесплатно! Внесите свою лепту в развитие PiratBit!
    Комментировать посты могут только пользователи прошедшие не сложную регистрацию
    Показать сообщения:    

    Angry Birds в кино через торрент
    Скачать бесплатно Angry Birds в кино
    Angry Birds в кино скачать торрент
    Angry Birds в кино смотреть онлайн
    Cкачать фильм Angry Birds в кино бесплатно
    Angry Birds в кино скачать торрент в хорошем качестве
    Angry Birds в кино смотреть онлайн бесплатно в хорошем качестве


    Вы не можете начинать темы
    Вы не можете отвечать на сообщения
    Вы не можете редактировать свои сообщения
    Вы не можете удалять свои сообщения
    Вы не можете голосовать в опросах
    Вы не можете прикреплять файлы к сообщениям
    Вы можете скачивать файлы