Ссылка на приватное зеркало нашего сайта всего за 1$. Внимание количество ограничено!!!

2 сезон

iTunes

1 сезон

1

2 сезон

2 сезон

iTunes

1 сезон

RePack

30

Ultimate

ВАЖНО

ИГРА 18+

pack

RePack

MK11
pack

Забери бонус

RePack

jed

!!Акция!!

Alien_Rage

RePack

fifa19

RePack

Assassins Creed: Odyssey

RePack

NEED FOR SPEED™ PAYBACK

4 сезон

9 сезон

Бесстыжие 9 сезон

Все сериалы

все сериалы на PB.wtf

RePack

FAR CRY 5
  

С меня хватит / Enough (Майкл Эптид) [2002 г., триллер, драма, криминал, HDTVRip 720p] DUB, AVO pb.wtf

С меня хватит через торрент pb.wtf

Размер: 3.93 GB | Добавлен: 4 года 2 мес. назад | Торрент скачан:50 раз
Скачать  

08-09-2016 05:24 С меня хватит Скачать торрент  

С меня хватит / Enough
Год выпуска: 2002
Страна: США
Жанр: триллер, драма, криминал
Продолжительность: 01:50:32
Перевод: Дублированный, авторский (Ю.Живов)

Субтитры: Русские, английские

Режиссер: Майкл Эптид
Продюссер: Роб Кауэн, Ирвин Уинклер, Джинни Ким
Сценарий: Николас Казан

Бюджет: $38 000 000
Премьера в мире: 24 мая 2002



В ролях: Дженнифер Лопес, Билл Кэмпбелл, Тесса Аллен, Джульетт Льюис, Дэн Футтерман, Ноа Уайли, Фред Уорд, Джанет Кэрролл, Билл Коббс, Кристофер Мехер, Брюс А. Янг, Брюс Френч, Рубен Мадера, Дэн Мартин, Джефф Кобер, Брент Секстон, Майкл П. Бирн, Лейф Ридделл, Риган Форман, Сандра Нельсон, Линн Мари Стюарт

Описание: Жизнь официантки Слим коренным образом меняется, когда она встречает богатого незнакомца Митча. Они влюбляются, женятся, покупают красивый домик и у них рождается дочка. Но восхитительной счастливой новой жизни Слим тоже приходит конец. Ее муж далеко не совершенство, и Слим узнает о его изменах. Оскорбленная поведением мужа, Слим пытается убежать от него, а ожесточившийся Митч теперь представляет смертельную угрозу ей и ее пятилетней дочери. Скрываясь от мужа, Слим решает принять серьезные меры. Она прячет дочь, а сама меняется морально и физически, намереваясь показать Митчу, что с нее довольно.

Качество: HDTVRip 720p
Формат: MKV
Видео кодек: H.264
Аудио кодек: AC3
Видео: MPEG-4 AVC, 4000 Кбит/с, 1280x544, 25 кадр/с
Аудио#1: AC3, 6 ch, 448 Кбит/с, 48 kHz | Дублированный
Аудио#2: AC3, 6 ch, 448 Кбит/с, 48 kHz | Aвторский (Ю.Живов)
Аудио#3: AC3, 2 ch, 192 Кбит/с, 48 kHz | Aнглийский
Релиз от: Koenig
General
Unique ID : 211663503981708771794966480175631946943 (0x9F3CE875A6F612F99C8727AC1307D4BF)
Complete name : Enough.2002.HDTVRip.720p.mkv
Format : Matroska
Format version : Version 4 / Version 2
File size : 3.93 GiB
Duration : 1h 50mn
Overall bit rate : 5 089 Kbps
Director : Michael Apted
Encoded date : UTC 2016-09-07 18:56:43
Writing application : mkvmerge v9.2.0 ('Photograph') 32bit
Writing library : libebml v1.3.3 + libmatroska v1.4.4
Cover : Yes
Attachments : cover.jpg
Release : Koenig

Video
ID : 1
Format : AVC
Format/Info : Advanced Video Codec
Format profile : High@L4.1
Format settings, CABAC : Yes
Format settings, ReFrames : 9 frames
Codec ID : V_MPEG4/ISO/AVC
Duration : 1h 50mn
Bit rate : 4 000 Kbps
Width : 1 280 pixels
Height : 544 pixels
Display aspect ratio : 2.35:1
Frame rate mode : Constant
Frame rate : 25.000 fps
Color space : YUV
Chroma subsampling : 4:2:0
Bit depth : 8 bits
Scan type : Progressive
Bits/(Pixel*Frame) : 0.230
Stream size : 3.09 GiB (79%)
Writing library : x264 core 148 r2692 64f4e24
Encoding settings : cabac=1 / ref=9 / deblock=1:-3:-3 / analyse=0x3:0x133 / me=umh / subme=10 / psy=1 / psy_rd=1.00:0.00 / mixed_ref=1 / me_range=32 / chroma_me=1 / trellis=2 / 8x8dct=1 / cqm=0 / deadzone=21,11 / fast_pskip=0 / chroma_qp_offset=-2 / threads=3 / lookahead_threads=1 / sliced_threads=0 / nr=0 / decimate=1 / interlaced=0 / bluray_compat=0 / constrained_intra=0 / bframes=10 / b_pyramid=2 / b_adapt=2 / b_bias=0 / direct=3 / weightb=1 / open_gop=0 / weightp=2 / keyint=250 / keyint_min=25 / scenecut=40 / intra_refresh=0 / rc_lookahead=40 / rc=2pass / mbtree=1 / bitrate=4000 / ratetol=1.0 / qcomp=0.60 / qpmin=10 / qpmax=51 / qpstep=4 / cplxblur=20.0 / qblur=0.5 / vbv_maxrate=50000 / vbv_bufsize=62500 / nal_hrd=none / filler=0 / ip_ratio=1.40 / aq=1:1.00
Default : Yes
Forced : No

Audio #1
ID : 2
Format : AC-3
Format/Info : Audio Coding 3
Mode extension : CM (complete main)
Format settings, Endianness : Big
Codec ID : A_AC3
Duration : 1h 50mn
Bit rate mode : Constant
Bit rate : 448 Kbps
Channel(s) : 6 channels
Channel positions : Front: L C R, Side: L R, LFE
Sampling rate : 48.0 KHz
Frame rate : 31.250 fps (1536 spf)
Compression mode : Lossy
Stream size : 354 MiB (9%)
Title : DUB
Language : Russian
Default : Yes
Forced : No

Audio #2
ID : 3
Format : AC-3
Format/Info : Audio Coding 3
Mode extension : CM (complete main)
Format settings, Endianness : Big
Codec ID : A_AC3
Duration : 1h 50mn
Bit rate mode : Constant
Bit rate : 448 Kbps
Channel(s) : 6 channels
Channel positions : Front: L C R, Side: L R, LFE
Sampling rate : 48.0 KHz
Frame rate : 31.250 fps (1536 spf)
Compression mode : Lossy
Stream size : 354 MiB (9%)
Title : AVO - Ю.Живов
Language : Russian
Default : No
Forced : No

Audio #3
ID : 4
Format : AC-3
Format/Info : Audio Coding 3
Mode extension : CM (complete main)
Format settings, Endianness : Big
Codec ID : A_AC3
Duration : 1h 50mn
Bit rate mode : Constant
Bit rate : 192 Kbps
Channel(s) : 2 channels
Channel positions : Front: L R
Sampling rate : 48.0 KHz
Frame rate : 31.250 fps (1536 spf)
Compression mode : Lossy
Stream size : 152 MiB (4%)
Title : Original
Language : English
Default : No
Forced : No

Text #1
ID : 5
Format : UTF-8
Codec ID : S_TEXT/UTF8
Codec ID/Info : UTF-8 Plain Text
Duration : 1h 50mn
Bit rate : 69 bps
Count of elements : 1069
Stream size : 56.1 KiB (0%)
Title : DVD
Language : Russian
Default : Yes
Forced : No

Text #2
ID : 6
Format : UTF-8
Codec ID : S_TEXT/UTF8
Codec ID/Info : UTF-8 Plain Text
Duration : 1h 45mn
Bit rate : 44 bps
Count of elements : 1037
Stream size : 34.6 KiB (0%)
Title : DVD
Language : English
Default : No
Forced : No

Menu
00:00:00.000 : :Chapter 01
00:02:40.560 : :Chapter 02
00:04:23.880 : :Chapter 03
00:06:38.480 : :Chapter 04
00:09:43.600 : :Chapter 05
00:12:02.560 : :Chapter 06
00:13:39.240 : :Chapter 07
00:17:18.560 : :Chapter 08
00:22:52.360 : :Chapter 09
00:25:50.840 : :Chapter 10
00:27:27.640 : :Chapter 11
00:28:40.880 : :Chapter 12
00:34:40.320 : :Chapter 13
00:39:52.720 : :Chapter 14
00:45:28.840 : :Chapter 15
00:48:07.720 : :Chapter 16
00:52:14.920 : :Chapter 17
00:54:06.480 : :Chapter 18
00:56:57.080 : :Chapter 19
00:59:47.720 : :Chapter 20
01:02:44.640 : :Chapter 21
01:06:54.520 : :Chapter 22
01:12:04.600 : :Chapter 23
01:18:55.000 : :Chapter 24
01:30:42.080 : :Chapter 25
01:37:34.560 : :Chapter 26
01:42:03.480 : :Chapter 27
01:44:53.920 : :Chapter 28

С меня хватит скачать торрент

pb.wtf



Скачать С меня хватит через торрент http://pic1.kartinco.top/images/10/uj7rc.jpg Скачать фильм С меня хватит через торрент бесплантно в хорошем качестве Описание: Жизнь официантки Слим коренным образом меняется, когда она встречает богатого незнакомца Митча. Они влюбляются, женятся, покупают ... 5 10 1
Info! Золотая раздача, скачанное не засчитывается.
Торрент: Зарегистрирован [2016-09-08 05:24] · скачан: 50 раз
Статус: √ проверено
Размер: 3.93 GB
Как cкачать? Как скачать С меня хватит через торрент | qTorrent

% Раздел Тема Автор DL S | L
Фильмы (WEB-DL 720p, 1080p) [ 12.49 GB ] С меня хватит / Enough [2002 WEB-DL 1080p] DUB + MVO + AVO - KORSAR kisa1980 Скачать
1 | 0

28-11-2019 20:33  

Отключить всю рекламу на сайте

    Дорогой пользователь! Огромная просьба, поблагодарите релизера, оцените раздачу и оставьте свои комментарий, если Вы скачали С меня хватит через торрент бесплатно! Внесите свою лепту в развитие PiratBit!
    Комментировать посты могут только пользователи прошедшие не сложную регистрацию
    Показать сообщения:    

    С меня хватит через торрент
    Скачать бесплатно С меня хватит
    С меня хватит скачать торрент
    С меня хватит смотреть онлайн
    Cкачать фильм С меня хватит бесплатно
    С меня хватит скачать торрент в хорошем качестве
    С меня хватит смотреть онлайн бесплатно в хорошем качестве


    Вы не можете начинать темы
    Вы не можете отвечать на сообщения
    Вы не можете редактировать свои сообщения
    Вы не можете удалять свои сообщения
    Вы не можете голосовать в опросах
    Вы не можете прикреплять файлы к сообщениям
    Вы можете скачивать файлы