Ссылка на приватное зеркало нашего сайта всего за 1$. Внимание количество ограничено!!!

2 сезон

iTunes

1 сезон

1

iTunes

iTunes

iTunes

1 сезон

RePack

30

ИГРА 18+

pack

ВАЖНО

!!Акция!!

Alien_RageХит недели

RePack

MK11
pack

Забери бонус

RePack

jed

!!Акция!!

Alien_Rage

RePack

fifa19

RePack

Assassins Creed: Odyssey

RePack

NEED FOR SPEED™ PAYBACK

4 сезон

9 сезон

Бесстыжие 9 сезон

Все сериалы

все сериалы на PB.wtf

RePack

FAR CRY 5
  

Кризис нежного возраста / Серии: 1-8 из 8 (Наталья Меркулова , Алексей Чупов) [2016, Мелодрама, комедия, WEB-DLRip] pb.wtf

Кризис нежного возраста через торрент pb.wtf

Размер: 4.47 GB | Добавлен: 4 года 1 мес. назад | Торрент скачан:118 раз
Скачать  

08-09-2016 05:46 Кризис нежного возраста Скачать торрент  

Кризис нежного возраста

Год выпуска: 2016

Страна: Россия
Жанр: мелодрама, комедия
Продолжительность: 00:41:16
Перевод: Оригинал
Режиссер: Наталья Меркулова , Алексей Чупов
В ролях: Мария Поезжаева (Шура Ермакова), Ксения Суркова (Аня Силкина), Кристина Исайкина (Юля Кузьмина), Евгений Цыганов (Андрей Сергеевич), Федор Лавров (Павел Ермаков, отец Шуры), Александра Ребенок (Ника, мать Шуры), Максим Виторган (Валерий Силкин, отец Ани), Александр Грашин (Лёша Козябин, друг детства Шуры), Руслан Ягудин (Сергей Якубов, парень Юли), Никита Волков (Саша Антипов, парень Ани), Олег Долин (Игорь), Артем Лощилин (Канин)
Описание:
Это история про трех лучших подруг: Шуру, Юлю и Аню. Им по 18 лет, все самое важное в жизни происходит у них в первый раз, и они подходят ко всему с юношеским рвением и максимализмом. Шура Ермакова влюбляется в преподавателя и в тот же день узнает, что в ее семью вернулась мама, которая бросила ее в детстве. Юля Кузьмина никак не может разорвать отношения со своим парнем-полицейским, который ей постоянно изменяет, а Аня Силкина, используя связи своего папы-продюсера, раз в неделю придумывает себе новую карьеру.
Рейтинг:

Качество: WEB-DLRip
Формат: AVI
Видео: XviD, 720x400 (16:9), 1602 kbps, 25 fps, 0,223 bpp
Аудио: AC3 / 2.0 / 48 kHz / 192 kbps /

General
Complete name Кризис нежного возраста.2016.WEB-DLRip.RG.Russkie.serialy.&.Files-x\01.Кризис нежного возраста.2016.WEB-DLRip.RG.Russkie.serialy.&.Files-x.avi
Format : AVI
Format/Info : Audio Video Interleave
File size : 533 MiB
Duration : 41 min
Overall bit rate : 1 804 kb/s
Writing application : VirtualDubMod 1.5.10.3 (build 2550/release)
Writing library : VirtualDubMod build 2550/release

Video
ID : 0
Format : MPEG-4 Visual
Format profile : Advanced Simple@L5
Format settings, BVOP : 1
Format settings, QPel : No
Format settings, GMC : No warppoints
Format settings, Matrix : Custom
Codec ID : XVID
Codec ID/Hint : XviD
Duration : 41 min
Bit rate : 1 602 kb/s
Width : 720 pixels
Height : 400 pixels
Display aspect ratio : 16:9
Frame rate : 25.000 FPS
Color space : YUV
Chroma subsampling : 4:2:0
Bit depth : 8 bits
Scan type : Progressive
Compression mode : Lossy
Bits/(Pixel*Frame) : 0.223
Stream size : 473 MiB (89%)
Writing library : XviD 73

Audio
ID : 1
Format : AC-3
Format/Info : Audio Coding 3
Mode extension : CM (complete main)
Format settings, Endianness : Big
Codec ID : 2000
Duration : 41 min
Bit rate mode : Constant
Bit rate : 192 kb/s
Channel(s) : 2 channels
Channel positions : Front: L R
Sampling rate : 48.0 kHz
Frame rate : 31.250 FPS (1536 spf)
Compression mode : Lossy
Stream size : 56.7 MiB (11%)
Alignment : Split accross interleaves
Interleave, duration : 40 ms (1.00 video frame)
Interleave, preload duration : 500 ms
Скриншоты:
pb.wtf



Скачать Кризис нежного возраста через торрент http://i2.imageban.ru/out/2016/09/08/e24be10ef2649c83af8a58e0b414729d.jpg Скачать фильм Кризис нежного возраста через торрент бесплантно в хорошем качестве Описание: Это история про трех лучших подруг: Шуру, Юлю и Аню. Им по 18 лет, все самое важное в жизни происходит у них в первый раз, и они ... 10 10 3
Торрент: Зарегистрирован [2016-09-08 05:46] · скачан: 118 раз
Статус: √ проверено
Размер: 4.47 GB
Как cкачать? Как скачать Кризис нежного возраста через торрент | qTorrent

% Раздел Тема Автор DL S | L
Наши сериалы [ 10.4 GB ] Кризис нежного возраста / Сезон: 1 / Серии: 1-8 из 8 [2016 Мело WEB-DL 1080p] bober100 Скачать
1 | 0
Наши сериалы [ 4.87 GB ] Кризис нежного возраста / Серии: 1-8 из 8 [2016 SATRip-AVC] aleksan55 Скачать
1 | 0
Наши сериалы [ 9.31 GB ] Кризис нежного возраста / Сезон: 1 / Серии 1-8 из 8 [2016 Россия Мело WEB-DL 720p) GEKADOL Скачать
1 | 0

28-11-2019 20:33  

Отключить всю рекламу на сайте

08-09-2016 06:07 Кризис нежного возраста Скачать торрент  

Ты че тут впихиваешь!!!!??? Это не сереал!pb.wtf



    Дорогой пользователь! Огромная просьба, поблагодарите релизера, оцените раздачу и оставьте свои комментарий, если Вы скачали Кризис нежного возраста через торрент бесплатно! Внесите свою лепту в развитие PiratBit!
    Комментировать посты могут только пользователи прошедшие не сложную регистрацию
    Показать сообщения:    

    Кризис нежного возраста через торрент
    Скачать бесплатно Кризис нежного возраста
    Кризис нежного возраста скачать торрент
    Кризис нежного возраста смотреть онлайн
    Cкачать фильм Кризис нежного возраста бесплатно
    Кризис нежного возраста скачать торрент в хорошем качестве
    Кризис нежного возраста смотреть онлайн бесплатно в хорошем качестве


    Вы не можете начинать темы
    Вы не можете отвечать на сообщения
    Вы не можете редактировать свои сообщения
    Вы не можете удалять свои сообщения
    Вы не можете голосовать в опросах
    Вы не можете прикреплять файлы к сообщениям
    Вы можете скачивать файлы