2 сезон

iTunes

1 сезон

1

iTunes

iTunes

iTunes

1 сезон

RePack

30

ИГРА 18+

pack

ВАЖНО

!!Акция!!

Alien_RageХит недели

RePack

MK11
pack

Забери бонус

RePack

jed

!!Акция!!

Alien_Rage

RePack

fifa19

RePack

Assassins Creed: Odyssey

RePack

NEED FOR SPEED™ PAYBACK

4 сезон

9 сезон

Бесстыжие 9 сезон

Все сериалы

все сериалы на PB.wtf

RePack

FAR CRY 5
  

Чёрная серия / Serie noire (Ален Корно) [1979, драма, криминал, BDRip 720p by msltel] MVO pb.wtf

Чёрная серия через торрент pb.wtf

Размер: 5.27 GB | Добавлен: 4 года 1 мес. назад | Торрент скачан:38 раз
Скачать  

08-09-2016 07:30 Чёрная серия Скачать торрент  

Название: Чёрная серия
Оригинальное название: Serie noire
Год выпуска: 1979
Страна: Франция
Жанр: драма, криминал
Продолжительность: 01:55:48
Перевод: профессиональный многоголосый

Режиссёр: Ален Корно

В ролях: Патрик Девэр, Мириам Бойе, Мари Трентиньян, Бернар Блие, Жанна Эрвиаль, Андреас Катсулас, Чарли Фарнель, Самуэль Мек, Джек Журден, Фернан Коке

Описание: Франк ведёт скучную жизнь разъездного коммивояжёра и не видит ничего, кроме парижских пригородов. Но однажды он совершает необычную сделку со старой женщиной, предложившей в обмен на его товар свою шестнадцатилетнюю племянницу Мону. Привязавшись к Франку, девушка предлагает ему убить свою опекуншу, чтобы завладеть её деньгами. Предвкушая перемены в жизни, он соглашается...



Качество: BDRip 720p Сравнение с исходником
Формат: MKV
Видео: MPEG-4 AVC, 6131 Кбит/с, 1200x720, 24 кадр/с
Аудио 1: русский, AC3, 192 kbps, 2 ch, 48 kHz [профессиональный многоголосый]
Аудио 2: французский, AC3, 192 kbps, 2 ch, 48 kHz [оригинал]
Общее
Уникальный идентификатор : 191243540172909030182476521502492922761 (0x8FE02A837EDC72A092FFF4EEC8C51389)
Полное имя : D:\Video\Чёрная серия.1979.BDRip.720p.mkv
Формат : Matroska
Версия формата : Version 4 / Version 2
Размер файла : 5,27 Гбайт
Продолжительность : 1 ч. 55 м.
Общий поток : 6517 Кбит/сек
Дата кодирования : UTC 2016-09-07 15:58:18
Программа кодирования : mkvmerge v8.2.0 ('World of Adventure') 64bit
Библиотека кодирования : libebml v1.3.1 + libmatroska v1.4.2

Видео
Идентификатор : 1
Формат : AVC
Формат/Информация : Advanced Video Codec
Профиль формата : High@L4.1
Параметр CABAC формата : Да
Параметр ReFrames формата : 9 кадров
Идентификатор кодека : V_MPEG4/ISO/AVC
Продолжительность : 1 ч. 55 м.
Битрейт : 6131 Кбит/сек
Ширина : 1200 пикселей
Высота : 720 пикселей
Соотношение сторон : 5:3
Режим частоты кадров : Постоянный
Частота кадров : 24,000 кадра/сек
Цветовое пространство : YUV
Субдискретизация насыщенности : 4:2:0
Битовая глубина : 8 бит
Тип развёртки : Прогрессивная
Бит/(Пиксели*Кадры) : 0.296
Размер потока : 4,96 Гбайт (94%)
Библиотека кодирования : x264 core 146 r2538 121396c
Настройки программы : cabac=1 / ref=9 / deblock=1:-3:-3 / analyse=0x3:0x113 / me=umh / subme=10 / psy=1 / psy_rd=1.00:0.15 / mixed_ref=1 / me_range=32 / chroma_me=1 / trellis=2 / 8x8dct=1 / cqm=0 / deadzone=21,11 / fast_pskip=1 / chroma_qp_offset=-3 / threads=6 / lookahead_threads=1 / sliced_threads=0 / nr=0 / decimate=1 / interlaced=0 / bluray_compat=0 / constrained_intra=0 / bframes=8 / b_pyramid=2 / b_adapt=2 / b_bias=0 / direct=1 / weightb=1 / open_gop=0 / weightp=2 / keyint=230 / keyint_min=23 / scenecut=40 / intra_refresh=0 / rc_lookahead=40 / rc=crf / mbtree=0 / crf=18.8 / qcomp=0.60 / qpmin=0 / qpmax=69 / qpstep=4 / vbv_maxrate=40000 / vbv_bufsize=50000 / crf_max=0.0 / nal_hrd=none / filler=0 / ip_ratio=1.40 / pb_ratio=1.30 / aq=1:1.00
Язык : French
Default : Да
Forced : Нет

Аудио #1
Идентификатор : 2
Формат : AC-3
Формат/Информация : Audio Coding 3
Профиль формата : Dolby Digital
Расширение режима : CM (complete main)
Параметр Endianness формата : Big
Идентификатор кодека : A_AC3
Продолжительность : 1 ч. 55 м.
Вид битрейта : Постоянный
Битрейт : 192 Кбит/сек
Каналы : 2 канала
Расположение каналов : Front: L R
Частота : 48,0 КГц
Частота кадров : 31,250 кадров/сек (1536 spf)
Метод сжатия : С потерями
Размер потока : 159 Мбайт (3%)
Заголовок : MVO
Язык : Russian
Default : Да
Forced : Нет

Аудио #2
Идентификатор : 3
Формат : AC-3
Формат/Информация : Audio Coding 3
Расширение режима : CM (complete main)
Параметр Endianness формата : Big
Идентификатор кодека : A_AC3
Продолжительность : 1 ч. 55 м.
Вид битрейта : Постоянный
Битрейт : 192 Кбит/сек
Каналы : 2 канала
Расположение каналов : Front: L R
Частота : 48,0 КГц
Частота кадров : 31,250 кадров/сек (1536 spf)
Метод сжатия : С потерями
Размер потока : 159 Мбайт (3%)
Заголовок : original
Язык : French
Default : Нет
Forced : Нет
pb.wtf



Скачать Чёрная серия через торрент http://s017.radikal.ru/i404/1609/62/fba7c770745d.jpg Скачать фильм Чёрная серия через торрент бесплантно в хорошем качестве Описание: Франк ведёт скучную жизнь разъездного коммивояжёра и не видит ничего, кроме парижских пригородов. Но однажды он совершает ... 10 10 3
Info! Золотая раздача, скачанное не засчитывается.
Торрент: Зарегистрирован [2016-09-08 07:30] · скачан: 38 раз
Статус: √ проверено
Размер: 5.27 GB
Как cкачать? Как скачать Чёрная серия через торрент | qTorrent

% Раздел Тема Автор DL S | L
Фильмы [HD 720p, 1080p] (Хороший звук DUB, MVO) [ 16.47 GB ] Чёрная серия / Serie noire [1979 BDRip 1080p by msltel] MVO msltel Скачать
1 | 0

28-11-2019 20:33  

Отключить всю рекламу на сайте

    Дорогой пользователь! Огромная просьба, поблагодарите релизера, оцените раздачу и оставьте свои комментарий, если Вы скачали Чёрная серия через торрент бесплатно! Внесите свою лепту в развитие PiratBit!
    Комментировать посты могут только пользователи прошедшие не сложную регистрацию
    Показать сообщения:    

    Чёрная серия через торрент
    Скачать бесплатно Чёрная серия
    Чёрная серия скачать торрент
    Чёрная серия смотреть онлайн
    Cкачать фильм Чёрная серия бесплатно
    Чёрная серия скачать торрент в хорошем качестве
    Чёрная серия смотреть онлайн бесплатно в хорошем качестве


    Вы не можете начинать темы
    Вы не можете отвечать на сообщения
    Вы не можете редактировать свои сообщения
    Вы не можете удалять свои сообщения
    Вы не можете голосовать в опросах
    Вы не можете прикреплять файлы к сообщениям
    Вы можете скачивать файлы