Ссылка на приватное зеркало нашего сайта всего за 1$. Внимание количество ограничено!!!

2 сезон

iTunes

1 сезон

1

iTunes

iTunes

iTunes

1 сезон

RePack

30

ИГРА 18+

pack

ВАЖНО

!!Акция!!

Alien_RageХит недели

RePack

MK11
pack

Забери бонус

RePack

jed

!!Акция!!

Alien_Rage

RePack

fifa19

RePack

Assassins Creed: Odyssey

RePack

NEED FOR SPEED™ PAYBACK

4 сезон

9 сезон

Бесстыжие 9 сезон

Все сериалы

все сериалы на PB.wtf

RePack

FAR CRY 5
  

Раненое сердце / Серии: 1-4 из 4 (Александр Итыгилов мл.) [2016, мелодрама, SATRip] pb.wtf

Раненое сердце через торрент pb.wtf

Размер: 2.15 GB | Добавлен: 4 года 1 мес. назад | Торрент скачан:179 раз
Скачать  

08-09-2016 12:32 Раненое сердце Скачать торрент  

Раненое сердце

Год выпуска: 2016

Страна: Россия, Украина
Жанр: мелодрама
Продолжительность: 00:42:46
Перевод: Оригинал
Субтитры: украинские
Режиссер: Александр Итыгилов мл.
В ролях: Михаил Пшеничный, Мила Сивацкая, Наталия Денисенко, Любава Грешнова, Александр Попов (IV)
Описание:
Максим Поверенов - ведущий архитектор в крупной строительной компании. Сам он давно ничего не придумывает, но талантливо руководит небольшим штатом сотрудников. У Максима есть невеста Тамара, но он до сих пор любит свою школьную любовь Ларису, которая не дождалась его из армии, выйдя замуж за лучшего друга. В разгар ответственной сделки Максиму приходит известие, что его любимая умерла. Максим едет к себе на родину, в деревню, чтобы попрощаться с Ларисой. Здесь его ждет известие - у него есть взрослая дочь Женя. Макс забирает дочь с собой, ведь в деревне у нее нет никакого будущего. Однако найти общий язык Женя не может ни с отцом, ни с его невестой, ни с одноклассниками, ни с учителями - вся ее жизнь скатывается в полосу темных дней. Максим, желая помочь дочери, вызывает в город учительницу и подругу Жени Викторию. Мудрой и доброй учительнице очень быстро удается вернуть девочке интерес к жизни. Неожиданно для себя Максим понимает, что любит Вику. Он осознает, что все это время жил как будто не своей жизнью: был не с теми людьми, занимался не тем, чем должен был. Максим бросает все, чтобы завоевать сердце любимой женщины.
Рейтинг:

Качество: SATRip
Формат: AVI
Видео: XviD, 720x400 (16:9), 1595 kbps, 25 fps, 0,222 bpp
Аудио: AC3 / 2.0 / 48 kHz / 192 kbps /

General
Complete name Раненое сердце.2016.SATRip.Files-x\01.Раненое сердце.2016.SATRip.Files-x.avi
Format : AVI
Format/Info : Audio Video Interleave
File size : 550 MiB
Duration : 42 min
Overall bit rate : 1 797 kb/s
Writing application : VirtualDubMod 1.5.10.3 | www.virtualdub-fr.org || (build 2550/release)
Writing library : VirtualDubMod build 2550/release

Video
ID : 0
Format : MPEG-4 Visual
Format profile : Advanced Simple@L5
Format settings, BVOP : 1
Format settings, QPel : No
Format settings, GMC : No warppoints
Format settings, Matrix : Custom
Codec ID : XVID
Codec ID/Hint : XviD
Duration : 42 min
Bit rate : 1 595 kb/s
Width : 720 pixels
Height : 400 pixels
Display aspect ratio : 16:9
Frame rate : 25.000 FPS
Color space : YUV
Chroma subsampling : 4:2:0
Bit depth : 8 bits
Scan type : Progressive
Compression mode : Lossy
Bits/(Pixel*Frame) : 0.222
Stream size : 488 MiB (89%)
Writing library : XviD 73

Audio
ID : 1
Format : AC-3
Format/Info : Audio Coding 3
Mode extension : CM (complete main)
Format settings, Endianness : Big
Codec ID : 2000
Duration : 42 min
Bit rate mode : Constant
Bit rate : 192 kb/s
Channel(s) : 2 channels
Channel positions : Front: L R
Sampling rate : 48.0 kHz
Frame rate : 31.250 FPS (1536 spf)
Compression mode : Lossy
Stream size : 58.7 MiB (11%)
Alignment : Split accross interleaves
Interleave, duration : 40 ms (1.00 video frame)
Interleave, preload duration : 500 ms
Скриншоты:
pb.wtf



Скачать Раненое сердце через торрент http://i1.imageban.ru/out/2016/09/08/0ab41ccb18d8fcf02af93471b0b3bd15.jpg Скачать фильм Раненое сердце через торрент бесплантно в хорошем качестве Описание: Максим Поверенов - ведущий архитектор в крупной строительной компании. Сам он давно ничего не придумывает, но талантливо ... 10 10 5
Торрент: Зарегистрирован [2016-09-08 12:32] · скачан: 179 раз
Статус: √ проверено
Размер: 2.15 GB
Как cкачать? Как скачать Раненое сердце через торрент | qTorrent

28-11-2019 20:33  

Отключить всю рекламу на сайте

    Дорогой пользователь! Огромная просьба, поблагодарите релизера, оцените раздачу и оставьте свои комментарий, если Вы скачали Раненое сердце через торрент бесплатно! Внесите свою лепту в развитие PiratBit!
    Комментировать посты могут только пользователи прошедшие не сложную регистрацию
    Показать сообщения:    

    Раненое сердце через торрент
    Скачать бесплатно Раненое сердце
    Раненое сердце скачать торрент
    Раненое сердце смотреть онлайн
    Cкачать фильм Раненое сердце бесплатно
    Раненое сердце скачать торрент в хорошем качестве
    Раненое сердце смотреть онлайн бесплатно в хорошем качестве


    Вы не можете начинать темы
    Вы не можете отвечать на сообщения
    Вы не можете редактировать свои сообщения
    Вы не можете удалять свои сообщения
    Вы не можете голосовать в опросах
    Вы не можете прикреплять файлы к сообщениям
    Вы можете скачивать файлы