новый адрес
Ссылка на приватное зеркало всего за 1$. Внимание количество ограничено!!!

iTunes

1+1

iTunes

мы

WEB-DL

1

iTunes

Чернобыль

iTunes

Ральф против интернета

Лицензия

ПШазам

Лицензия

Оно 2

Лицензия

30
pack

Вам бонус

ВАЖНО

!!Акция!!

Alien_RageХит недели

RePack

Resident Evil 21

ИГРА 18+

pack

RePack

jed

!!Акция!!

Alien_Rage

RePack

fifa19

RePack

Assassins Creed: Odyssey

RePack

NEED FOR SPEED™ PAYBACK

3 сезон

9 сезон

Бесстыжие 9 сезон

Все сериалы

все сериалы на PB.wtf

RePack

FAR CRY 5
Ребята, катастрофически не хватает 1900р. для оплаты серверов за Октябрь (всвязи с блокировками трафик упал в 3 раза), 1-2р., выручайте.
  

Васёк Трубачёв и его товарищи (Илья Фрэз) [1955, СССР, приключения, семейный, DVDRip от AVP Studio] pb.wtf

Васёк Трубачёв и его товарищи через торрент pb.wtf

Размер: 1.09 GB | Добавлен: 3 года 3 мес. назад | Торрент скачан:28 раз
Скачать  

08-09-2016 13:12 Васёк Трубачёв и его товарищи Скачать торрент  

Васёк Трубачёв и его товарищи
Страна: СССР
Производство: Киностудия им. Горького

Жанр: приключения, семейный
Год выпуска: 1955
Продолжительность: 01:16:46

Перевод: Не требуется
Cубтитры: нет
Оригинальная аудиодорожка: русский

Режиссер: Илья Фрэз

В ролях:
Олег Вишнев, Саша Чудаков, Вова Семенович, Слава Девкин, Жора Александров, Наталья Рычагова, Валерий Сафарбеков, Юра Башкиров, Борис Канарейкин, Оля Троицкая, Юрий Боголюбов, Леонид Харитонов, Иван Пельтцер, Анастасия Зуева, Юрий Медведев, Пётр Алейников, Иветта Киселёва, Нина Никитина...
Полный список актёров

Описание:
Фильм повествует о жизни и приключениях советских школьников в предвоенные годы. О том, как вчерашние друзья - одноклассники едва не становятся врагами. Фильм первый, снятый по одноименному роману - трилогии Валентины Осеевой.

Источник: DVD5 R5
Качество видео: DVDRip
Формат видео: AVI

Видео: 688x512 (4:3), 25 fps, XviD ~ 1825 kbps avg, 0.207 bit/pixel
Аудио: 48 kHz, Dolby Digital AC3 2.0, 192 kbps

Раздача от:
Общее
Полное имя : Vasek.Trubachev.i.ego.tovarishhi.1955.DVDRip_[New-team]_by_AVP_Studio.avi
Формат : AVI
Формат/Информация : Audio Video Interleave
Размер файла : 1,09 Гбайт
Продолжительность : 1 ч. 16 м.
Общий поток : 2027 Кбит/сек
Программа кодирования : VirtualDubMod 1.5.10.3 | www.virtualdub-fr.org || (build 2550/release)
Библиотека кодирования : VirtualDubMod build 2550/release

Видео
Идентификатор : 0
Формат : MPEG-4 Visual
Профиль формата : Advanced Simple@L5
Параметр BVOP формата : 1
Параметр QPel формата : Нет
Параметр GMC формата : Без точки перехода
Параметр матрицы формата : Выборочная
Идентификатор кодека : XVID
Идентификатор кодека/Подсказка : XviD
Продолжительность : 1 ч. 16 м.
Битрейт : 1825 Кбит/сек
Ширина : 688 пикселей
Высота : 512 пикселей
Соотношение сторон : 4:3
Частота кадров : 25,000 кадров/сек
Цветовое пространство : YUV
Субдискретизация насыщенности : 4:2:0
Битовая глубина : 8 бит
Тип развёртки : Прогрессивная
Метод сжатия : С потерями
Бит/(Пиксели*Кадры) : 0.207
Размер потока : 1002 Мбайт (90%)
Библиотека кодирования : XviD 1.2.1 (UTC 2008-12-04)

Аудио
Идентификатор : 1
Формат : AC-3
Формат/Информация : Audio Coding 3
Расширение режима : CM (complete main)
Параметр Endianness формата : Big
Идентификатор кодека : 2000
Продолжительность : 1 ч. 16 м.
Вид битрейта : Постоянный
Битрейт : 192 Кбит/сек
Каналы : 2 канала
Расположение каналов : Front: L R
Частота : 48,0 КГц
Частота кадров : 31,250 кадров/сек (1536 spf)
Метод сжатия : С потерями
Размер потока : 105 Мбайт (9%)
Выравнивание : Разделение по промежуткам
Продолжительность промежутка : 40 мс. (1,00 видеокадр)
Время предзагрузки промежутка : 500 мс
pb.wtf



Скачать Васёк Трубачёв и его товарищи через торрент http://s12.radikal.ru/i185/1606/9c/8dad0a1d6f28.png Скачать фильм Васёк Трубачёв и его товарищи через торрент бесплантно в хорошем качестве Описание:Фильм повествует о жизни и приключениях советских школьников в предвоенные годы. О том, как вчерашние друзья - одноклассники едва ... 10 10 2
Info! Золотая раздача, скачанное не засчитывается.
Торрент: Зарегистрирован [2016-09-08 13:12] · скачан: 28 раз
Статус: √ проверено
Размер: 1.09 GB
Как cкачать? Как скачать Васёк Трубачёв и его товарищи через торрент | qTorrent

% Раздел Тема Автор DL S | L
Кино СССР [ 1.09 GB ] Васёк Трубачёв и его товарищи [1955 СССР DVDRip-AVC от AVP Studio] AVP Studio Скачать
1 | 0
Кино СССР [ 744 MB ] Васёк Трубачёв и его товарищи [1955 СССР DVDRip от AVP Studio] AVP Studio Скачать
1 | 0

28-11-2019 20:33  

Отключить всю рекламу на сайте

    Дорогой пользователь! Огромная просьба, поблагодарите релизера, оцените раздачу и оставьте свои комментарий, если Вы скачали Васёк Трубачёв и его товарищи через торрент бесплатно! Внесите свою лепту в развитие PiratBit!
    Комментировать посты могут только пользователи прошедшие не сложную регистрацию
    Показать сообщения:    

    Васёк Трубачёв и его товарищи через торрент
    Скачать бесплатно Васёк Трубачёв и его товарищи
    Васёк Трубачёв и его товарищи скачать торрент
    Васёк Трубачёв и его товарищи смотреть онлайн
    Cкачать фильм Васёк Трубачёв и его товарищи бесплатно
    Васёк Трубачёв и его товарищи скачать торрент в хорошем качестве
    Васёк Трубачёв и его товарищи смотреть онлайн бесплатно в хорошем качестве


    Вы не можете начинать темы
    Вы не можете отвечать на сообщения
    Вы не можете редактировать свои сообщения
    Вы не можете удалять свои сообщения
    Вы не можете голосовать в опросах
    Вы не можете прикреплять файлы к сообщениям
    Вы можете скачивать файлы