Ссылка на приватное зеркало нашего сайта всего за 1$. Внимание количество ограничено!!!

2 сезон

iTunes

1 сезон

1

iTunes

iTunes

iTunes

1 сезон

RePack

30

ИГРА 18+

pack

ВАЖНО

!!Акция!!

Alien_RageХит недели

RePack

MK11
pack

Забери бонус

RePack

jed

!!Акция!!

Alien_Rage

RePack

fifa19

RePack

Assassins Creed: Odyssey

RePack

NEED FOR SPEED™ PAYBACK

4 сезон

9 сезон

Бесстыжие 9 сезон

Все сериалы

все сериалы на PB.wtf

RePack

FAR CRY 5
  

Дедушка легкого поведения / Dirty Grandpa (Дэн Мазер / Dan Mazer) [2016, комедия, BDRip 720p от potroks] [Unrated Cut] Dub [iTunes] pb.wtf

Дедушка легкого поведения через торрент pb.wtf

Размер: 6.67 GB | Добавлен: 4 года 1 мес. назад | Торрент скачан:319 раз
Скачать  

08-09-2016 14:24 Дедушка легкого поведения Скачать торрент  

Дедушка легкого поведения / Dirty Grandpa
«This is Jason. He's a little worried about his grandpa»
Год выпуска: 2016
Страна: США / Lionsgate...
Жанр: комедия
Продолжительность: 01:49:34
Перевод: Дубляж [iTunes]
Субтитры: русские (форс.), английские (Full + SDH + SDH-Colored)
Навигация по главам: есть
Режиссер: Дэн Мазер / Dan Mazer
В ролях:

Роберт Де Ниро (Dick Kelly), Зак Эфрон (Jason Kelly), Зои Дойч (Shadia), Обри Плаза (Lenore), Джейсон Манцукас (Tan Pam), Дермот Малруни (David Kelly), Джулианна Хаф (Meredith), Джеффри Бауэр-Чепман (Bradley), Брэндон Майкал Смит (Tyrone), Джейк Пикинг (Cody), Майкл Хадсон (Brah), Адам Палли (Cousin Nick)
Описание: Джейсон, покладистый правильный парень, накануне свадьбы вляпывается в увеселительную поездку к морю со своим дедом, отставным генералом с легким нравом, бурной фантазией и вполне определенными потребностями... И, похоже, дедские каникулы изменят жизнь Джейсона навсегда!

Качество: BDRip 720p
Формат: MKV
Видео кодек: AVC
Аудио кодек: AC3
Видео: 1280x534 (2.40:1), 7055 kbps, 23,976 fps, 0.430 bit/pixel
Аудио#1: AC3 / 5.1 / 48 kHz / 384 kbps / 16 bit | RUS
Аудио#2: AC3 / 5.1 / 48 kHz / 640 kbps / 16 bit | AVO - М.Яроцкий
Аудио#3: AC3 / 5.1 / 48 kHz / 640 kbps / 16 bit | ENG
UNRATED - расширенная версия, длиннее российской прокатной на ~8 минут. Не хватает около 7 минут перевода. Эти места переведены субтитрами
Общее
Уникальный идентификатор : 199142250326474688341355277527674112352 (0x95D166FDC3C1B54AB8E8CD65C1E5C960)
Полное имя : F:\Комедия\Dedushka.Legkogo.Povedeniya.UC.2016.2xRus.Eng.BDRip.720p.-HELLYWOOD.mkv
Формат : Matroska
Версия формата : Version 4 / Version 2
Размер файла : 6,67 Гбайт
Продолжительность : 1 ч. 49 м.
Общий поток : 8718 Кбит/сек
Название фильма : Dirty Grandpa (2016)
Дата кодирования : UTC 2016-09-08 13:58:07
Программа кодирования : mkvmerge v5.9.0 ('On The Loose') built on Dec 15 2012 16:39:58
Библиотека кодирования : libebml v1.3.0 + libmatroska v1.4.0

Видео
Идентификатор : 1
Формат : AVC
Формат/Информация : Advanced Video Codec
Профиль формата : High@L4.1
Параметр CABAC формата : Да
Параметр ReFrames формата : 10 кадров
Идентификатор кодека : V_MPEG4/ISO/AVC
Продолжительность : 1 ч. 49 м.
Битрейт : 7055 Кбит/сек
Ширина : 1280 пикселей
Высота : 534 пикселя
Соотношение сторон : 2,40:1
Режим частоты кадров : Постоянный
Частота кадров : 23,976 кадра/сек
Цветовое пространство : YUV
Субдискретизация насыщенности : 4:2:0
Битовая глубина : 8 бит
Тип развёртки : Прогрессивная
Бит/(Пиксели*Кадры) : 0.430
Размер потока : 5,27 Гбайт (79%)
Заголовок : potroks
Библиотека кодирования : x264 core 146 r2538 121396c
Настройки программы : cabac=1 / ref=10 / deblock=1:-3:-3 / analyse=0x3:0x113 / me=umh / subme=11 / psy=1 / psy_rd=1.00:0.10 / mixed_ref=1 / me_range=48 / chroma_me=1 / trellis=2 / 8x8dct=1 / cqm=0 / deadzone=21,11 / fast_pskip=0 / chroma_qp_offset=-3 / threads=9 / lookahead_threads=2 / sliced_threads=0 / nr=0 / decimate=0 / interlaced=0 / bluray_compat=0 / constrained_intra=0 / bframes=11 / b_pyramid=2 / b_adapt=2 / b_bias=0 / direct=3 / weightb=1 / open_gop=0 / weightp=2 / keyint=240 / keyint_min=23 / scenecut=40 / intra_refresh=0 / rc_lookahead=60 / rc=2pass / mbtree=0 / bitrate=7055 / ratetol=1.0 / qcomp=0.70 / qpmin=0 / qpmax=69 / qpstep=4 / cplxblur=20.0 / qblur=0.5 / vbv_maxrate=14000 / vbv_bufsize=14000 / nal_hrd=none / filler=0 / ip_ratio=1.40 / pb_ratio=1.30 / aq=1:0.80
Язык : English
Default : Да
Forced : Нет

Аудио #1
Идентификатор : 2
Формат : AC-3
Формат/Информация : Audio Coding 3
Расширение режима : CM (complete main)
Параметр Endianness формата : Big
Идентификатор кодека : A_AC3
Продолжительность : 1 ч. 49 м.
Вид битрейта : Постоянный
Битрейт : 384 Кбит/сек
Каналы : 6 каналов
Расположение каналов : Front: L C R, Side: L R, LFE
Частота : 48,0 КГц
Частота кадров : 31,250 кадров/сек (1536 spf)
Метод сжатия : С потерями
Размер потока : 301 Мбайт (4%)
Заголовок : Dub | DD 5.1 @ 384 kbps - iTunes
Язык : Russian
Default : Да
Forced : Нет

Аудио #2
Идентификатор : 3
Формат : AC-3
Формат/Информация : Audio Coding 3
Расширение режима : CM (complete main)
Параметр Endianness формата : Big
Идентификатор кодека : A_AC3
Продолжительность : 1 ч. 49 м.
Вид битрейта : Постоянный
Битрейт : 640 Кбит/сек
Каналы : 6 каналов
Расположение каналов : Front: L C R, Side: L R, LFE
Частота : 48,0 КГц
Частота кадров : 31,250 кадров/сек (1536 spf)
Метод сжатия : С потерями
Размер потока : 502 Мбайт (7%)
Заголовок : AVO | DD 5.1 @ 640 kbps - M.Yarotsky
Язык : Russian
Default : Нет
Forced : Нет

Аудио #3
Идентификатор : 4
Формат : AC-3
Формат/Информация : Audio Coding 3
Расширение режима : CM (complete main)
Параметр Endianness формата : Big
Идентификатор кодека : A_AC3
Продолжительность : 1 ч. 49 м.
Вид битрейта : Постоянный
Битрейт : 640 Кбит/сек
Каналы : 6 каналов
Расположение каналов : Front: L C R, Side: L R, LFE
Частота : 48,0 КГц
Частота кадров : 31,250 кадров/сек (1536 spf)
Метод сжатия : С потерями
Размер потока : 502 Мбайт (7%)
Заголовок : Original | DD 5.1 @ 640 kbps
Язык : English
Default : Нет
Forced : Нет

Текст #1
Идентификатор : 5
Формат : UTF-8
Идентификатор кодека : S_TEXT/UTF8
Идентификатор кодека/Информация : UTF-8 Plain Text
Заголовок : Forced
Язык : Russian
Default : Нет
Forced : Нет

Текст #2
Идентификатор : 6
Формат : UTF-8
Идентификатор кодека : S_TEXT/UTF8
Идентификатор кодека/Информация : UTF-8 Plain Text
Заголовок : Forced
Язык : Russian
Default : Да
Forced : Нет

Текст #3
Идентификатор : 7
Формат : UTF-8
Идентификатор кодека : S_TEXT/UTF8
Идентификатор кодека/Информация : UTF-8 Plain Text
Заголовок : Full
Язык : English
Default : Нет
Forced : Нет

Текст #4
Идентификатор : 8
Формат : UTF-8
Идентификатор кодека : S_TEXT/UTF8
Идентификатор кодека/Информация : UTF-8 Plain Text
Заголовок : SDH
Язык : English
Default : Нет
Forced : Нет

Текст #5
Идентификатор : 9
Формат : UTF-8
Идентификатор кодека : S_TEXT/UTF8
Идентификатор кодека/Информация : UTF-8 Plain Text
Заголовок : SDH-Colored
Язык : English
Default : Нет
Forced : Нет

Меню
00:00:00.000 : en:00:00:00.000
00:06:38.148 : en:00:06:38.148
00:11:28.730 : en:00:11:28.730
00:17:15.743 : en:00:17:15.743
00:25:03.585 : en:00:25:03.585
00:31:17.209 : en:00:31:17.209
00:37:24.450 : en:00:37:24.450
00:48:56.600 : en:00:48:56.600
00:52:35.360 : en:00:52:35.360
00:58:19.287 : en:00:58:19.287
01:03:28.554 : en:01:03:28.554
01:06:47.712 : en:01:06:47.712
01:14:30.049 : en:01:14:30.049
01:21:14.077 : en:01:21:14.077
01:28:26.843 : en:01:28:26.843
01:38:16.182 : en:01:38:16.182
pb.wtf



Скачать Дедушка легкого поведения через торрент http://i80.fastpic.ru/big/2016/0517/40/1f6c42cad47b5df86ed0dbcfe862a640.png Скачать фильм Дедушка легкого поведения через торрент бесплантно в хорошем качестве Описание: Джейсон, покладистый правильный парень, накануне свадьбы вляпывается в увеселительную поездку к морю со своим дедом, отставным ... 10 10 4
Info! Золотая раздача, скачанное не засчитывается.
Торрент: Зарегистрирован [2016-09-08 14:24] · скачан: 319 раз
Статус: √ проверено
Размер: 6.67 GB
Как cкачать? Как скачать Дедушка легкого поведения через торрент | qTorrent

% Раздел Тема Автор DL S | L
Ultra HD (UHD: 2K, 4K, 8K) — видео сверхвысокой чёткости [ 51.88 GB ] Дедушка легкого поведения / Dirty Grandpa [2015 UHD BDRemux 2160p] DUB [Dolby Vision TV] sheker187 Скачать
1 | 0
Ultra HD (UHD: 2K, 4K, 8K) — видео сверхвысокой чёткости [ 57.84 GB ] Дедушка легкого поведения / Dirty Grandpa [2016 UHD BDRemux 2160p] [Театральная версия] [HDR: Dolby Vision + HDR10] bober100 Скачать
1 | 0
Ultra HD (UHD: 2K, 4K, 8K) — видео сверхвысокой чёткости [ 50.07 GB ] Дедушка легкого поведения / Dirty Grandpa [2016 UHD BDRemux 2160p] [Театральная версия] bober100 Скачать
1 | 0
Фильмы 2016 [DVDrip, WEB-DLRip, HDrip] (DUB, MVO) [ 1.46 GB ] Дедушка легкого поведения / Dirty Grandpa [2016 BDRip-AVC от sokol_ok] [Расширенная версия] Dub sokol_ok Скачать
2 | 0
Фильмы (Blu-ray, BD-Remux, HDDVD) [ 29.65 GB ] Дедушка легкого поведения / Dirty Grandpa [2016 BDRemux 1080p] от ExKinoRay / Расширенная версия / Russian Mafia Скачать
1 | 0
Фильмы 2016 [DVDrip, WEB-DLRip, HDrip] (DUB, MVO) [ 2.13 GB ] Дедушка легкого поведения / Dirty Grandpa [2016 BDRip-AVC] [Unrated Cut] Dub potroks Скачать
1 | 0
Фильмы 2016 [DVDrip, WEB-DLRip, HDrip] (DUB, MVO) [ 1.41 GB ] Дедушка легкого поведения / Dirty Grandpa [2016 BDRip-AVC] [Unrated Cut] Dub potroks Скачать
1 | 0

28-11-2019 20:33  

Отключить всю рекламу на сайте

08-09-2016 19:22 Дедушка легкого поведения Скачать торрент  

Угарный фильмpb.wtf



08-09-2016 23:36 Дедушка легкого поведения Скачать торрент  

посотрим)pb.wtf



    Дорогой пользователь! Огромная просьба, поблагодарите релизера, оцените раздачу и оставьте свои комментарий, если Вы скачали Дедушка легкого поведения через торрент бесплатно! Внесите свою лепту в развитие PiratBit!
    Комментировать посты могут только пользователи прошедшие не сложную регистрацию
    Показать сообщения:    

    Дедушка легкого поведения через торрент
    Скачать бесплатно Дедушка легкого поведения
    Дедушка легкого поведения скачать торрент
    Дедушка легкого поведения смотреть онлайн
    Cкачать фильм Дедушка легкого поведения бесплатно
    Дедушка легкого поведения скачать торрент в хорошем качестве
    Дедушка легкого поведения смотреть онлайн бесплатно в хорошем качестве


    Вы не можете начинать темы
    Вы не можете отвечать на сообщения
    Вы не можете редактировать свои сообщения
    Вы не можете удалять свои сообщения
    Вы не можете голосовать в опросах
    Вы не можете прикреплять файлы к сообщениям
    Вы можете скачивать файлы