Ссылка на приватное зеркало нашего сайта всего за 1$. Внимание количество ограничено!!!

2 сезон

iTunes

1 сезон

1

iTunes

iTunes

iTunes

1 сезон

RePack

30

ИГРА 18+

pack

ВАЖНО

!!Акция!!

Alien_RageХит недели

RePack

MK11
pack

Забери бонус

RePack

jed

!!Акция!!

Alien_Rage

RePack

fifa19

RePack

Assassins Creed: Odyssey

RePack

NEED FOR SPEED™ PAYBACK

4 сезон

9 сезон

Бесстыжие 9 сезон

Все сериалы

все сериалы на PB.wtf

RePack

FAR CRY 5
  

Черепашки-ниндзя 2 / Teenage Mutant Ninja Turtles: Out of the Shadows (Дэйв Грин) [2016, фантастика, фэнтези, боевик, комедия, приключения, BDRip 720p] [Dub] [Лицензия / iTunes] pb.wtf

Черепашки-ниндзя 2 через торрент pb.wtf

Размер: 6 GB | Добавлен: 4 года 1 мес. назад | Торрент скачан:191 раз
Скачать  

08-09-2016 15:16 Черепашки-ниндзя 2 Скачать торрент  

Черепашки-ниндзя 2 / Teenage Mutant Ninja Turtles: Out of the Shadows«Raise some shell»
Год выпуска » 2016
Страна » США, Гонконг, Китай, Канада
Жанр » Фантастика, фэнтези, боевик, комедия, приключения
Длительность » 01:52:15
Перевод » Профессиональный (полное дублирование) [iTunes]
Субтитры » Russian (full), English (full)
В ролях
» Меган Фокс, Стивен Амелл, Алан Ричсон, Уилл Арнетт, Стефен Фаррелли, Алессандра Амброзио, Брэд Гэррет, Тайлер Перри

Режиссёр
» Дэйв Грин
Описание:
» Долгое время черепашки-ниндзя скрывались от людей в лабиринтах городской канализации. На протяжении нескольких лет учитель Сплинтер обучал их боевым искусствам и прививал им чувство справедливости. В один прекрасный момент им пришлось подняться наверх, чтобы спасти Нью-Йорк от Шредера, предводителя Клана Футов, захватившего Влacть в Нью-Йорке. Вместе с отважным репортером Эйприл и ее оператором Верном, бесстрашные воины смогли одержать победу и очистить любимый город от преступности. Леонардо, Микеланджело, Рафаэль и Донателло нашли свое предназначение в этом мире и стали защитниками своего города. Они навели порядок в Нью-Йорке и с чистой совестью могли отправиться на покой, но однажды им вновь пришлось столкнуться с могущественным врагом, угрожающим их городу…

• Качество » BDRip 720p
• Формат » MKV
• Видео кодек » AVC
• Аудио кодек » AC3
• Видео »MPEG-4 AVC, 6489 kb/s, 1280x534,23,976 кадра/сек
• Аудио » Русский (AC-3 / 6 ch / 384 kbps / 48,0 КГц / 16 bit )
• Аудио » Английский (AC-3 / 6 ch / 640 kbps / 48,0 КГц / 16 bit)



Бюджет: $135 000 000
Сборы в США: $81 987 616
Сборы в мире: + $160 500 000 = $242 487 616
Сборы в России: $9 798 717
Дата мировой премьеры: 22 мая 2016
Дата российской премьеры: 2 июня 2016, «Централ Партнершип»
Общее
Уникальный идентификатор : 205937185851597155953204848553828824820 (0x9AEE0F2D97CAD6F6929ED4967EDC36F4)
Полное имя : D:загрузкиTeenage.Mutant.Ninja.Turtles.Out.of.the.Shadows.2016.D.BDRip.720p.mkv
Формат : Matroska
Версия формата : Version 2
Размер файла : 6,00 Гбайт
Продолжительность : 1 ч. 52 м.
Общий поток : 7658 Кбит/сек
Дата кодирования : UTC 2016-09-08 11:15:55
Программа кодирования : mkvmerge v7.8.0 ('River Man') 32bit built on Apr 3 2015 12:11:22
Библиотека кодирования : libebml v1.3.1 + libmatroska v1.4.2

Видео
Идентификатор : 1
Формат : AVC
Формат/Информация : Advanced Video Codec
Профиль формата : High@L4.1
Параметр CABAC формата : Да
Параметр ReFrames формата : 9 кадров
Идентификатор кодека : V_MPEG4/ISO/AVC
Продолжительность : 1 ч. 52 м.
Битрейт : 6482 Кбит/сек
Ширина : 1280 пикселей
Высота : 534 пикселя
Соотношение сторон : 2,40:1
Режим частоты кадров : Постоянный
Частота кадров : 23,976 кадра/сек
Цветовое пространство : YUV
Субдискретизация насыщенности : 4:2:0
Битовая глубина : 8 бит
Тип развёртки : Прогрессивная
Бит/(Пиксели*Кадры) : 0.396
Размер потока : 5,08 Гбайт (85%)
Библиотека кодирования : x264 core 142 r2431+42 c69a006 tMod [8-bit@4:2:0 X86_64]
Настройки программы : cabac=1 / ref=9 / deblock=1:-3:-3 / analyse=0x3:0x113 / me=umh / subme=11 / psy=1 / fade_compensate=0.00 / psy_rd=1.00:0.05 / mixed_ref=1 / me_range=32 / chroma_me=1 / trellis=2 / 8x8dct=1 / cqm=0 / deadzone=21,11 / fast_pskip=0 / chroma_qp_offset=-2 / threads=12 / lookahead_threads=2 / sliced_threads=0 / nr=0 / decimate=1 / interlaced=0 / bluray_compat=0 / constrained_intra=0 / fgo=0 / bframes=8 / b_pyramid=2 / b_adapt=2 / b_bias=0 / direct=3 / weightb=1 / open_gop=0 / weightp=2 / keyint=250 / keyint_min=23 / scenecut=40 / intra_refresh=0 / rc_lookahead=40 / rc=crf / mbtree=0 / crf=17.0000 / qcomp=0.60 / qpmin=0:0:0 / qpmax=69:69:69 / qpstep=4 / vbv_maxrate=30000 / vbv_bufsize=30000 / crf_max=0.0 / nal_hrd=none / filler=0 / ip_ratio=1.40 / pb_ratio=1.30 / aq=3:1.00 / aq-sensitivity=10.00 / aq-factor=1.00:1.00:1.00 / aq2=0 / aq3=0
Язык : English
Default : Да
Forced : Нет
Коэффициенты матрицы : BT.709

Аудио #1
Идентификатор : 2
Формат : AC-3
Формат/Информация : Audio Coding 3
Расширение режима : CM (complete main)
Параметр Endianness формата : Big
Идентификатор кодека : A_AC3
Продолжительность : 1 ч. 52 м.
Вид битрейта : Постоянный
Битрейт : 384 Кбит/сек
Каналы : 6 каналов
Расположение каналов : Front: L C R, Side: L R, LFE
Частота : 48,0 КГц
Битовая глубина : 16 бит
Метод сжатия : С потерями
Размер потока : 308 Мбайт (5%)
Заголовок : iTunes
Язык : Russian
Default : Да
Forced : Нет

Аудио #2
Идентификатор : 3
Формат : AC-3
Формат/Информация : Audio Coding 3
Расширение режима : CM (complete main)
Параметр Endianness формата : Big
Идентификатор кодека : A_AC3
Продолжительность : 1 ч. 52 м.
Вид битрейта : Постоянный
Битрейт : 640 Кбит/сек
Каналы : 6 каналов
Расположение каналов : Front: L C R, Side: L R, LFE
Частота : 48,0 КГц
Битовая глубина : 16 бит
Метод сжатия : С потерями
Размер потока : 513 Мбайт (8%)
Язык : English
Default : Нет
Forced : Нет

Текст #1
Идентификатор : 4
Формат : UTF-8
Идентификатор кодека : S_TEXT/UTF8
Идентификатор кодека/Информация : UTF-8 Plain Text
Заголовок : full
Язык : Russian
Default : Нет
Forced : Нет

Текст #2
Идентификатор : 5
Формат : UTF-8
Идентификатор кодека : S_TEXT/UTF8
Идентификатор кодека/Информация : UTF-8 Plain Text
Заголовок : full
Язык : English
Default : Нет
Forced : Нет
скриншот  скриншот  скриншот  скриншот  
pb.wtf



Скачать Черепашки-ниндзя 2 через торрент http://s1.pic.pb.wtf/images/10/qjilv.jpg Скачать фильм Черепашки-ниндзя 2 через торрент бесплантно в хорошем качестве Описание:» Долгое время черепашки-ниндзя скрывались от людей в лабиринтах городской канализации. На протяжении нескольких лет учитель ... 10 10 14
Info! Золотая раздача, скачанное не засчитывается.
Торрент: Зарегистрирован [2016-09-08 15:16] · скачан: 191 раз
Статус: √ проверено
Размер: 6 GB
Как cкачать? Как скачать Черепашки-ниндзя 2 через торрент | qTorrent

% Раздел Тема Автор DL S | L
Фильмы [HD 720p, 1080p] (Хороший звук DUB, MVO) [ 7.37 GB ] Черепашки-ниндзя 2 / Teenage Mutant Ninja Turtles: Out of the Shadows [2016 BDRip-HEVC 1080p] DUB [] bober100 Скачать
1 | 0
Ultra HD (UHD: 2K, 4K, 8K) — видео сверхвысокой чёткости [ 59.98 GB ] Черепашки-ниндзя 2 / Teenage Mutant Ninja Turtles: Out of the Shadows [2016 UHD BDRemux 2160p] 2xAVO+DUB [] bober100 Скачать
1 | 0
Ultra HD (UHD: 2K, 4K, 8K) — видео сверхвысокой чёткости [ 64.44 GB ] Черепашки-ниндзя 2 / Teenage Mutant Ninja Turtles: Out of the Shadows [2016 UHD Blu-ray 2160p] 2xAVO+DUB [] bober100 Скачать
1 | 0
3D Фильмы [ 16.29 GB ] Черепашки-ниндзя 2 в 3D / Teenage Mutant Ninja Turtles: Out of the Shadows 3D [2016 3D BDRip 1080p] / Half OverUnder sheker187 Скачать
2 | 0
Ultra HD (UHD: 2K, 4K, 8K) — видео сверхвысокой чёткости [ 51.76 GB ] Черепашки-ниндзя 2 / Teenage Mutant Ninja Turtles: Out of the Shadows [2016 UHDWEBRip 2160p] - [] sheker187 Скачать
1 | 0
Фильмы (HD 720p, 1080p) (48-60 fps) [ 6.1 GB ] Черепашки-ниндзя 2 / Teenage Mutant Ninja Turtles: Out of the Shadows [2016 BDRip 720p 60 fps от еnvy / NNNB] DUB еnvy Скачать
6 | 0
T Релизы по Парсеру [Игры, Сериалы и Фильмы и другое...] [ 746 MB ] Черепашки-ниндзя 2 / Teenage Mutant Ninja Turtles: Out of the Shadows WEB-DLRip от MegaPeer / Ворон Скачать
1 | 0

28-11-2019 20:33  

Отключить всю рекламу на сайте

08-09-2016 16:01 Черепашки-ниндзя 2 Скачать торрент  

О нормуль, надо скачать в норм качествеpb.wtf



21-09-2016 10:21 Черепашки-ниндзя 2 Скачать торрент  

сам скачал) pb.wtf



    Дорогой пользователь! Огромная просьба, поблагодарите релизера, оцените раздачу и оставьте свои комментарий, если Вы скачали Черепашки-ниндзя 2 через торрент бесплатно! Внесите свою лепту в развитие PiratBit!
    Комментировать посты могут только пользователи прошедшие не сложную регистрацию
    Показать сообщения:    

    Черепашки-ниндзя 2 через торрент
    Скачать бесплатно Черепашки-ниндзя 2
    Черепашки-ниндзя 2 скачать торрент
    Черепашки-ниндзя 2 смотреть онлайн
    Cкачать фильм Черепашки-ниндзя 2 бесплатно
    Черепашки-ниндзя 2 скачать торрент в хорошем качестве
    Черепашки-ниндзя 2 смотреть онлайн бесплатно в хорошем качестве


    Вы не можете начинать темы
    Вы не можете отвечать на сообщения
    Вы не можете редактировать свои сообщения
    Вы не можете удалять свои сообщения
    Вы не можете голосовать в опросах
    Вы не можете прикреплять файлы к сообщениям
    Вы можете скачивать файлы