1 сезон

1 сезон

iTunes

1

КиноПоиск HD

Кинопоиск HD

iTunes

13

1 сезон

RePack

30

Новинка

ВАЖНО

ИГРА 18+

pack

RePack

MK11
pack

Легкие деньги

RePack

jed

RePack

fifa19

RePack

RDR2

RePack

NEED FOR SPEED™ PAYBACK

4 сезон

9 сезон

Бесстыжие 9 сезон

Все сериалы

все сериалы на PB.wtf

RePack

FAR CRY 5
  
Magnet ссылка

Жаркое американское лето / Wet Hot American Summer (Дэвид Уэйн / David Wain) [2001, мелодрама, комедия, BDRip-AVC от NNNB] DVO + Original + Sub (Rus,2xEng) pb.wtf

Жаркое американское лето через торрент pb.wtf

Размер: 2.91 GB | Добавлен: 4 года 7 мес. назад | Торрент скачан:52 раза
Скачать  

08-09-2016 15:34 Жаркое американское лето Скачать торрент  

Жаркое американское лето / Wet Hot American Summer
«It was the last day of summer camp.


Год выпуска: 2001
Страна: США
Жанр: мелодрама, комедия
Продолжительность: 01:36:53
Перевод: Профессиональный двухголосый
Субтитры: русские, английские, английские (SDH)
Режиссер: Дэвид Уэйн
В ролях: Джанин Гарофало , Дэвид Хайд Пирс , Майкл Шоуолтер , Маргерит Моро , Майкл Йен Блэк , Зак Орт , А.Д. Майлз , Пол Радд , Кристофер Мелони , Молли Шеннон , Кен Марино , Джо Ло Трульо
Описание:
На летний лагерь вот-вот должны упасть обломки космической станции. Идет последний день каникул. Строгая начальница лагеря Бет влюбляется в профессора Генри Ньюмана. Он пытается спасти лагерь от возможного падения обломков космической станции.

R - Лицам до 17 лет обязательно присутствие взрослого
Качество: BDRip-AVC
Контейнер (Расширение): MKV
Видео: 1024x554, 3661 Кбит/сек, 23,976 кадр/сек, 0,269 Бит/[Пиксели*Кадры]
Аудио №1: русский / AC3 / 2.0 / 48 kHz / 192 kbps / |Профессиональный двухголосый, R5|
Аудио №2: английский / AC3 / 2.0 / 48 kHz / 448 kbps /
Навигация по главам(Чаптеры): естьАвтор рипа: Сообщество: Звуковые дорожки и субтитры отдельно:

Код:

Format                                   : Matroska
Format version                           : Version 2
File size                                : 2.91 GiB
Duration                                 : 1 h 36 min
Overall bit rate                         : 4 306 kb/s
Movie name                               : Wet Hot American Summer.(2001).BDRip-AVC.[denis100]
Encoded date                             : UTC 2016-09-08 11:01:03
Writing application                      : mkvmerge v5.8.0 ('No Sleep / Pillow') built on Sep  2 2012 15:37:04
Writing library                          : libebml v1.2.3 + libmatroska v1.3.0

Video
ID                                       : 1
Format                                   : AVC
Format/Info                              : Advanced Video Codec
Format profile                           : High@L4.1
Format settings, CABAC                   : Yes
Format settings, ReFrames                : 11 frames
Codec ID                                 : V_MPEG4/ISO/AVC
Duration                                 : 1 h 36 min
Bit rate                                 : 3 661 kb/s
Width                                    : 1 024 pixels
Height                                   : 554 pixels
Display aspect ratio                     : 1.85:1
Frame rate mode                          : Constant
Frame rate                               : 23.976 (24000/1001) FPS
Color space                              : YUV
Chroma subsampling                       : 4:2:0
Bit depth                                : 8 bits
Scan type                                : Progressive
Bits/(Pixel*Frame)                       : 0.269
Stream size                              : 2.42 GiB (83%)
Title                                    : Wet Hot American Summer.(2001).BDRip-AVC.[denis100]
Writing library                          : x264 core 148 r2705 3f5ed56
Encoding settings                        : cabac=1 / ref=11 / deblock=1:-3:-3 / analyse=0x3:0x133 / me=umh / subme=11 / psy=1 / psy_rd=1.00:0.15 / mixed_ref=1 / me_range=48 / chroma_me=1 / trellis=2 / 8x8dct=1 / cqm=0 / deadzone=21,11 / fast_pskip=0 / chroma_qp_offset=-3 / threads=6 / lookahead_threads=1 / sliced_threads=0 / nr=0 / decimate=1 / interlaced=0 / bluray_compat=0 / constrained_intra=0 / bframes=14 / b_pyramid=2 / b_adapt=2 / b_bias=0 / direct=3 / weightb=1 / open_gop=0 / weightp=2 / keyint=240 / keyint_min=23 / scenecut=40 / intra_refresh=0 / rc=2pass / mbtree=0 / bitrate=3661 / ratetol=1.0 / qcomp=0.60 / qpmin=0 / qpmax=69 / qpstep=4 / cplxblur=20.0 / qblur=0.5 / ip_ratio=1.40 / pb_ratio=1.30 / aq=2:0.80
Language                                 : English
Default                                  : Yes
Forced                                   : No

Audio #1
ID                                       : 2
Format                                   : AC-3
Format/Info                              : Audio Coding 3
Mode extension                           : CM (complete main)
Format settings, Endianness              : Big
Codec ID                                 : A_AC3
Duration                                 : 1 h 36 min
Bit rate mode                            : Constant
Bit rate                                 : 192 kb/s
Channel(s)                               : 2 channels
Channel positions                        : Front: L R
Sampling rate                            : 48.0 kHz
Frame rate                               : 31.250 FPS (1536 spf)
Compression mode                         : Lossy
Stream size                              : 133 MiB (4%)
Title                                    : Профессиональный двухголосый, R5
Language                                 : Russian
Default                                  : Yes
Forced                                   : No

Audio #2
ID                                       : 3
Format                                   : AC-3
Format/Info                              : Audio Coding 3
Mode extension                           : CM (complete main)
Format settings, Endianness              : Big
Codec ID                                 : A_AC3
Duration                                 : 1 h 36 min
Bit rate mode                            : Constant
Bit rate                                 : 448 kb/s
Channel(s)                               : 2 channels
Channel positions                        : Front: L R
Sampling rate                            : 48.0 kHz
Frame rate                               : 31.250 FPS (1536 spf)
Compression mode                         : Lossy
Stream size                              : 310 MiB (10%)
Language                                 : English
Default                                  : No
Forced                                   : No

Text #1
ID                                       : 4
Format                                   : UTF-8
Codec ID                                 : S_TEXT/UTF8
Codec ID/Info                            : UTF-8 Plain Text
Language                                 : Russian
Default                                  : No
Forced                                   : No

Text #2
ID                                       : 5
Format                                   : UTF-8
Codec ID                                 : S_TEXT/UTF8
Codec ID/Info                            : UTF-8 Plain Text
Language                                 : English
Default                                  : No
Forced                                   : No

Text #3
ID                                       : 6
Format                                   : UTF-8
Codec ID                                 : S_TEXT/UTF8
Codec ID/Info                            : UTF-8 Plain Text
Title                                    : SDH
Language                                 : English
Default                                  : No
Forced                                   : No

Menu
00:00:00.000                             : en:00:00:00.000
00:06:59.377                             : en:00:06:59.377
00:14:08.639                             : en:00:14:08.639
00:18:53.632                             : en:00:18:53.632
00:25:40.581                             : en:00:25:40.581
00:30:16.940                             : en:00:30:16.940
00:33:53.573                             : en:00:33:53.573
00:42:20.663                             : en:00:42:20.663
00:44:56.319                             : en:00:44:56.319
00:49:33.762                             : en:00:49:33.762
00:52:16.675                             : en:00:52:16.675
01:00:20.742                             : en:01:00:20.742
01:05:14.369                             : en:01:05:14.369
01:10:55.168                             : en:01:10:55.168
01:14:46.232                             : en:01:14:46.232
01:21:39.686                             : en:01:21:39.686
01:27:45.385                             : en:01:27:45.385
01:32:25.832                             : en:01:32:25.832

pb.wtf



Скачать Жаркое американское лето через торрент http://i6.imageban.ru/out/2016/09/08/c8daf9fe416c07bd21defa05f3e7a147.png Скачать фильм Жаркое американское лето через торрент бесплантно в хорошем качестве Описание:На летний лагерь вот-вот должны упасть обломки космической станции. Идет последний день каникул. Строгая начальница лагеря Бет ... 10 10 1
Info! Золотая раздача, скачанное не засчитывается.
Торрент: Зарегистрирован [2016-09-08 15:34] · скачан: 52 раз
Статус: √ проверено
Размер: 2.91 GB
Как cкачать? Как скачать Жаркое американское лето через торрент | UTorrent

% Раздел Тема Автор DL S | L
Зарубежные сериалы [ 13.22 GB ] Жаркое американское лето: Первый день лагеря / Wet Hot American Summer: First Day of Camp / Сезон: 1 / Серии: 1-8 из 8 [2015 WEBRip 1080p] MVO [NewStudio] bober100 Скачать
1 | 0
Фильмы [HD 720p, 1080p] (Хороший звук DUB, MVO) [ 10.11 GB ] Жаркое американское лето / Wet Hot American Summer [2001 BDRip 720p от NNNB] DVO + Original + Sub _denis_100 Скачать
1 | 0
Зарубежные сериалы [ 2.73 GB ] Жаркое американское лето: Первый день лагеря / Wet Hot American Summer: First Day of Camp/ Сезон: 1 / Серии 1-8 из 8 [2015 WEBRip] MVO [NewStudio] GEKADOL Скачать
1 | 0

28-11-2019 20:33  

Отключить всю рекламу на сайте

    Дорогой пользователь! Огромная просьба, поблагодарите релизера, оцените раздачу и оставьте свои комментарий, если Вы скачали Жаркое американское лето через торрент бесплатно! Внесите свою лепту в развитие PiratBit!
    Комментировать посты могут только пользователи прошедшие не сложную регистрацию
    Показать сообщения:    

    Жаркое американское лето через торрент
    Скачать бесплатно Жаркое американское лето
    Жаркое американское лето скачать торрент
    Жаркое американское лето смотреть онлайн
    Cкачать фильм Жаркое американское лето бесплатно
    Жаркое американское лето скачать торрент в хорошем качестве
    Жаркое американское лето смотреть онлайн бесплатно в хорошем качестве


    Вы не можете начинать темы
    Вы не можете отвечать на сообщения
    Вы не можете редактировать свои сообщения
    Вы не можете удалять свои сообщения
    Вы не можете голосовать в опросах
    Вы не можете прикреплять файлы к сообщениям
    Вы можете скачивать файлы