Ссылка на приватное зеркало нашего сайта всего за 1$. Внимание количество ограничено!!!

2 сезон

iTunes

1 сезон

1

iTunes

iTunes

iTunes

1 сезон

RePack

30

ИГРА 18+

pack

ВАЖНО

!!Акция!!

Alien_RageХит недели

RePack

MK11
pack

Забери бонус

RePack

jed

!!Акция!!

Alien_Rage

RePack

fifa19

RePack

Assassins Creed: Odyssey

RePack

NEED FOR SPEED™ PAYBACK

4 сезон

9 сезон

Бесстыжие 9 сезон

Все сериалы

все сериалы на PB.wtf

RePack

FAR CRY 5
  

Втройне / 3faltig (Харальд Зихериц) [2010, комедия, BDRip 720p by msltel] VO pb.wtf

Втройне через торрент pb.wtf

Размер: 4.59 GB | Добавлен: 4 года 1 мес. назад | Торрент скачан:31 раз
Скачать  

10-09-2016 10:50 Втройне Скачать торрент  

Название: Втройне
Оригинальное название: 3faltig
Год выпуска: 2010
Страна: Германия, Австрия
Жанр: комедия
Продолжительность: 01:32:37
Перевод: любительский одноголосый

Режиссёр: Харальд Зихериц

В ролях: Кристиан Трамиц, Маттиас Швайгхефер, Роланд Дюрингер, Аделе Нойхаузер, Альфред Дорфер, Джулия Хартманн, Микаель Швайгхёфер, Карл Фишер, Вальтер Кордеш, Стефани Дворак, Кристиан Ульмен, Фолькер Михаловски

Описание: Хадж, Святой Дух, пишет мюзикл, когда Иисус возвращается на землю, чтобы подготовиться к апокалипсису. Чтобы предотвратить это, Хадж пытается убедить его, что человечество стоит того, чтобы сохранить ему жизнь, и делает это при помощи красивой танцовщицы стриптиза...



Качество: BDRip 720p Сравнение с исходником
Формат: MKV
Видео: MPEG-4 AVC, 6192 Кбит/с, 1280x692, 25 кадра/с
Аудио 1: русский, AC3, 448 kbps, 6 ch, 48 kHz [любительский одноголосый, Andi999]
Аудио 2: немецкий, AC3, 448 kbps, 6 ch, 48 kHz [оригинал]
Субтитры 1: русские
Субтитры 2: немецкие
Общее
Уникальный идентификатор : 217194724407116331041584712017570494351 (0xA3662EAE7AFC846DBB60AB3ADB14F78F)
Полное имя : D:\Video\Втройне.2010.BDRip.720p.mkv
Формат : Matroska
Версия формата : Version 4 / Version 2
Размер файла : 4,59 Гбайт
Продолжительность : 1 ч. 32 м.
Общий поток : 7091 Кбит/сек
Дата кодирования : UTC 2016-09-10 05:06:31
Программа кодирования : mkvmerge v8.2.0 ('World of Adventure') 64bit
Библиотека кодирования : libebml v1.3.1 + libmatroska v1.4.2

Видео
Идентификатор : 1
Формат : AVC
Формат/Информация : Advanced Video Codec
Профиль формата : High@L4.1
Параметр CABAC формата : Да
Параметр ReFrames формата : 9 кадров
Идентификатор кодека : V_MPEG4/ISO/AVC
Продолжительность : 1 ч. 32 м.
Битрейт : 6192 Кбит/сек
Ширина : 1280 пикселей
Высота : 692 пикселя
Соотношение сторон : 1,85:1
Режим частоты кадров : Постоянный
Частота кадров : 25,000 кадров/сек
Цветовое пространство : YUV
Субдискретизация насыщенности : 4:2:0
Битовая глубина : 8 бит
Тип развёртки : Прогрессивная
Бит/(Пиксели*Кадры) : 0.280
Размер потока : 4,01 Гбайт (87%)
Библиотека кодирования : x264 core 146 r2538 121396c
Настройки программы : cabac=1 / ref=9 / deblock=1:-1:-1 / analyse=0x3:0x113 / me=umh / subme=10 / psy=1 / psy_rd=1.00:0.15 / mixed_ref=1 / me_range=32 / chroma_me=1 / trellis=2 / 8x8dct=1 / cqm=0 / deadzone=21,11 / fast_pskip=1 / chroma_qp_offset=-3 / threads=6 / lookahead_threads=1 / sliced_threads=0 / nr=0 / decimate=1 / interlaced=0 / bluray_compat=0 / constrained_intra=0 / bframes=8 / b_pyramid=2 / b_adapt=2 / b_bias=0 / direct=1 / weightb=1 / open_gop=0 / weightp=2 / keyint=250 / keyint_min=25 / scenecut=40 / intra_refresh=0 / rc_lookahead=40 / rc=crf / mbtree=0 / crf=17.5 / qcomp=0.60 / qpmin=0 / qpmax=69 / qpstep=4 / vbv_maxrate=40000 / vbv_bufsize=50000 / crf_max=0.0 / nal_hrd=none / filler=0 / ip_ratio=1.40 / pb_ratio=1.30 / aq=1:1.00
Язык : German
Default : Да
Forced : Нет

Аудио #1
Идентификатор : 2
Формат : AC-3
Формат/Информация : Audio Coding 3
Расширение режима : CM (complete main)
Параметр Endianness формата : Big
Идентификатор кодека : A_AC3
Продолжительность : 1 ч. 32 м.
Вид битрейта : Постоянный
Битрейт : 448 Кбит/сек
Каналы : 6 каналов
Расположение каналов : Front: L C R, Side: L R, LFE
Частота : 48,0 КГц
Частота кадров : 31,250 кадров/сек (1536 spf)
Метод сжатия : С потерями
Размер потока : 297 Мбайт (6%)
Заголовок : любительский одноголосый, Andi999
Язык : Russian
Default : Да
Forced : Нет

Аудио #2
Идентификатор : 3
Формат : AC-3
Формат/Информация : Audio Coding 3
Расширение режима : CM (complete main)
Параметр Endianness формата : Big
Идентификатор кодека : A_AC3
Продолжительность : 1 ч. 32 м.
Вид битрейта : Постоянный
Битрейт : 448 Кбит/сек
Каналы : 6 каналов
Расположение каналов : Front: L C R, Side: L R, LFE
Частота : 48,0 КГц
Частота кадров : 31,250 кадров/сек (1536 spf)
Метод сжатия : С потерями
Размер потока : 297 Мбайт (6%)
Заголовок : original
Язык : German
Default : Нет
Forced : Нет

Текст #1
Идентификатор : 4
Формат : UTF-8
Идентификатор кодека : S_TEXT/UTF8
Идентификатор кодека/Информация : UTF-8 Plain Text
Продолжительность : 1 ч. 32 м.
Битрейт : 98 бит/сек
Count of elements : 1273
Размер потока : 66,2 Кбайт (0%)
Заголовок : русские
Язык : Russian
Default : Нет
Forced : Нет

Текст #2
Идентификатор : 5
Формат : UTF-8
Идентификатор кодека : S_TEXT/UTF8
Идентификатор кодека/Информация : UTF-8 Plain Text
Продолжительность : 1 ч. 32 м.
Битрейт : 71 бит/сек
Count of elements : 1362
Размер потока : 48,3 Кбайт (0%)
Заголовок : немецкие
Язык : German
Default : Нет
Forced : Нет
pb.wtf



Скачать Втройне через торрент http://s018.radikal.ru/i518/1609/9a/025a2871e5fa.jpg Скачать фильм Втройне через торрент бесплантно в хорошем качестве Описание: Хадж, Святой Дух, пишет мюзикл, когда Иисус возвращается на землю, чтобы подготовиться к апокалипсису. Чтобы предотвратить это, ... 4 10 3
Торрент: Зарегистрирован [2016-09-10 10:50] · скачан: 31 раз
Статус: √ проверено
Размер: 4.59 GB
Как cкачать? Как скачать Втройне через торрент | qTorrent

% Раздел Тема Автор DL S | L
Фильмы [HD 720p, 1080p] (Хороший звук DUB, MVO) [ 13.08 GB ] Втройне / 3faltig [2010 BDRip 1080p by msltel] VO msltel Скачать
1 | 0

28-11-2019 20:33  

Отключить всю рекламу на сайте

    Дорогой пользователь! Огромная просьба, поблагодарите релизера, оцените раздачу и оставьте свои комментарий, если Вы скачали Втройне через торрент бесплатно! Внесите свою лепту в развитие PiratBit!
    Комментировать посты могут только пользователи прошедшие не сложную регистрацию
    Показать сообщения:    

    Втройне через торрент
    Скачать бесплатно Втройне
    Втройне скачать торрент
    Втройне смотреть онлайн
    Cкачать фильм Втройне бесплатно
    Втройне скачать торрент в хорошем качестве
    Втройне смотреть онлайн бесплатно в хорошем качестве


    Вы не можете начинать темы
    Вы не можете отвечать на сообщения
    Вы не можете редактировать свои сообщения
    Вы не можете удалять свои сообщения
    Вы не можете голосовать в опросах
    Вы не можете прикреплять файлы к сообщениям
    Вы можете скачивать файлы