Ссылка на приватное зеркало нашего сайта всего за 1$. Внимание количество ограничено!!!

2 сезон

iTunes

1 сезон

1

2 сезон

2 сезон

iTunes

1 сезон

RePack

30

Ultimate

ВАЖНО

ИГРА 18+

pack

RePack

MK11
pack

Забери бонус

RePack

jed

!!Акция!!

Alien_Rage

RePack

fifa19

RePack

Assassins Creed: Odyssey

RePack

NEED FOR SPEED™ PAYBACK

4 сезон

9 сезон

Бесстыжие 9 сезон

Все сериалы

все сериалы на PB.wtf

RePack

FAR CRY 5
  

Все к лучшему / Радости жизни / Перемены / Better Things / Сезон: 1 / Серии 1-10 из 10 (Лэнс Бэнгс / Lance Bangs, Луис С.К. / Louis C.K., Ниша Ганатра / Nisha Ganatra) [2016 , США, комедия, WEB-DLRip-AVC] MVO [BaibaKo] pb.wtf

Все к лучшему через торрент pb.wtf

Размер: 4.1 GB | Добавлен: 4 года назад | Торрент скачан:10 раз
Скачать  

11-09-2016 02:07 Все к лучшему Скачать торрент  

Перемены К лучшему / Better Things


  • Год выпуска: 2016
  • Страна: США
  • Жанр: комедия
  • Продолжительность: 00:22:33 (Серия)
  • Перевод: Профессиональный многоголосый [BaibaKo]
  • Режиссер: Лэнс Бэнгс / Lance Bangs, Луис С.К. / Louis C.K., Ниша Ганатра / Nisha Ganatra
  • В ролях:

    Памела Адлон (Sam), Ханна Аллигуд (Frankie), Оливия Эдвард (Duke), Селия Имри (Phyllis), Мики Мэдисон (Max), Райли Уотсон (Frankie), Ребекка Мец (Tressa), Алисия Райнер (Sunny), Бриджер Задина (Harvey), Абрахам Лим (Alex), Эмма Ловен, Патриция Скэнлон (Joy)


  • Сюжет будет затрагивать основные аспекты нелегких будней матери-одиночки, на воспитании которой находятся трое дочерей. Сэм — так зовут главную героиню — актриса, которая не достигла особых вершин в своей карьере и обделена успехом и массовым признанием, но в то же время не сидит без работы. Эта хрупкая женщина пытается как-то сводить концы с концами, направлять в нужное русло жизни своих дочек. Она старается весело проводить время с друзьями и иногда, если повезет, заниматься с кем-нибудь сексом.
  • Рейтинг:



  • Качество: WEB-DLRip-AVC
  • Формат: :MPEG-4
  • Видео кодек: AVC
  • Аудио кодек: AC3
  • Видео: 1024x576 (16:9), 2000 kbps, 23,976 fps, 0,141 bpp
  • Аудио №1: русский / 5.1 / 48 kHz / 384 kbps / 16 bit |[BaibaKo]|
  • Аудио №2: английский / 5.1 / 48 kHz / 384 kbps / 16 bit
  • Релиз от: GEKADOL

    Код:

    Внимание! Раздача ведётся путём добавления новых серий; при каждом добавлении создаётся новый торрент. Чтобы начать докачку новой серии, пользователям необходимо сделать следующее:
    (1) остановить скачивание,
    (2) удалить старый торрент у себя из клиента (старые серии удалять не надо),
    (3) скачать новый торрент и запустить его у себя в клиенте вместо старого, при этом указать клиенту путь в старую папку куда и должно происходить скачивание новых серий.
    Ваш клиент при этом должен произвести хеширование (проверку) старой папки (если не производит сам - помогите ему сделать это), и будет докачивать только те серии которых у вас ещё нет. Старые серии при этом не удаляются, а продолжают раздаваться!
    Eсли вы уже удалили старые серии, то предотвратить повторную закачку старых серий можно, отжав галочку в соответсвующих местах при запуске нового торрента. По возможности, желательно не удалять старые серии как можно дольше чтобы релизёр не столько продолжал раздавать старые серии, а смог сконцентрироваться на новых.


    Код:

    General
    Complete name                            : H:\Перемены (Better Things)\Better.Things.s01e01.WEB-DLRip-AVC.Rus.Eng.BaibaKo.tv.mp4
    Format                                   : MPEG-4
    Format profile                           : Base Media
    Codec ID                                 : isom (isom/iso2/avc1/mp41)
    File size                                : 447 MiB
    Duration                                 : 22 min
    Overall bit rate                         : 2 771 kb/s
    Writing application                      : XviD4PSP 7.0.290 DAILY
    HDVideo                                  : Yes
    encoding_info                            : MATROSKA / WEBM > MP4 Произвольный / H264 > X264 CBR 2000kbps HQ / AC3 > AC3 CBR 384kbps / AC3 > AC3 CBR 384kbps

    Video
    ID                                       : 1
    Format                                   : AVC
    Format/Info                              : Advanced Video Codec
    Format profile                           : High@L4.1
    Format settings, CABAC                   : Yes
    Format settings, ReFrames                : 4 frames
    Codec ID                                 : avc1
    Codec ID/Info                            : Advanced Video Coding
    Duration                                 : 22 min
    Bit rate                                 : 2 000 kb/s
    Width                                    : 1 024 pixels
    Height                                   : 576 pixels
    Display aspect ratio                     : 16:9
    Frame rate mode                          : Constant
    Frame rate                               : 23.976 (24000/1001) FPS
    Color space                              : YUV
    Chroma subsampling                       : 4:2:0
    Bit depth                                : 8 bits
    Scan type                                : Progressive
    Bits/(Pixel*Frame)                       : 0.141
    Stream size                              : 322 MiB (72%)
    Writing library                          : x264 core 148 r2705M 3f5ed56
    Encoding settings                        : cabac=1 / ref=3 / deblock=1:-1:-1 / analyse=0x3:0x133 / me=hex / subme=7 / psy=1 / psy_rd=1.00:0.20 / mixed_ref=1 / me_range=16 / chroma_me=1 / trellis=1 / 8x8dct=1 / cqm=0 / deadzone=21,11 / fast_pskip=1 / chroma_qp_offset=-3 / threads=5 / lookahead_threads=1 / sliced_threads=0 / nr=0 / decimate=1 / interlaced=0 / bluray_compat=0 / constrained_intra=0 / bframes=3 / b_pyramid=2 / b_adapt=2 / b_bias=0 / direct=3 / weightb=1 / open_gop=0 / weightp=2 / keyint=230 / keyint_min=23 / scenecut=40 / intra_refresh=0 / rc_lookahead=40 / rc=cbr / mbtree=1 / bitrate=2000 / ratetol=1.0 / qcomp=0.60 / qpmin=0 / qpmax=69 / qpstep=4 / vbv_maxrate=2000 / vbv_bufsize=30000 / nal_hrd=none / filler=0 / ip_ratio=1.40 / aq=1:1.00

    Audio #1
    ID                                       : 2
    Format                                   : AC-3
    Format/Info                              : Audio Coding 3
    Mode extension                           : CM (complete main)
    Format settings, Endianness              : Big
    Codec ID                                 : ac-3
    Duration                                 : 22 min
    Bit rate mode                            : Constant
    Bit rate                                 : 384 kb/s
    Channel(s)                               : 6 channels
    Channel positions                        : Front: L C R, Side: L R, LFE
    Sampling rate                            : 48.0 kHz
    Frame rate                               : 31.250 FPS (1536 spf)
    Bit depth                                : 16 bits
    Compression mode                         : Lossy
    Stream size                              : 62.0 MiB (14%)
    Language                                 : Russian
    Default                                  : Yes
    Alternate group                          : 1

    Audio #2
    ID                                       : 3
    Format                                   : AC-3
    Format/Info                              : Audio Coding 3
    Mode extension                           : CM (complete main)
    Format settings, Endianness              : Big
    Codec ID                                 : ac-3
    Duration                                 : 22 min
    Bit rate mode                            : Constant
    Bit rate                                 : 384 kb/s
    Channel(s)                               : 6 channels
    Channel positions                        : Front: L C R, Side: L R, LFE
    Sampling rate                            : 48.0 kHz
    Frame rate                               : 31.250 FPS (1536 spf)
    Bit depth                                : 16 bits
    Compression mode                         : Lossy
    Stream size                              : 62.0 MiB (14%)
    Language                                 : English
    Default                                  : No
    Alternate group                          : 1




    Скриншоты:
    скриншот   скриншот   скриншот   скриншот   скриншот   скриншот   скриншот  
    скриншот  

    Раздача ведётся путём добавления новых серий. Добавлена 10 серия (26.11.2016).Просьба перекачать торрент файл.

    pb.wtf



  • Скачать Все к лучшему через торрент http://i6.imageban.ru/out/2016/09/11/401907c18884d6d473225cef0c20c761.jpg Скачать фильм Все к лучшему через торрент бесплантно в хорошем качестве qw.png Сюжет будет затрагивать основные аспекты нелегких будней матери-одиночки, на воспитании которой находятся трое дочерей. Сэм — так ... 10 10 1
    Info! Золотая раздача, скачанное не засчитывается.
    Торрент: Зарегистрирован [2016-11-26 08:13] · скачан: 10 раз
    Статус: √ проверено
    Размер: 4.1 GB
    Как cкачать? Как скачать Все к лучшему через торрент | qTorrent

    % Раздел Тема Автор DL S | L
    Зарубежные сериалы [ 15.42 GB ] Все к лучшему / Радости жизни / Перемены / Better Things / Сезон: 3 / Серии: 1-12 из 12 [2019 WEB-DL 1080p] MVO [Jaskier] bober100 Скачать
    1 | 0
    Зарубежные сериалы [ 3.17 GB ] Все к лучшему / Радости жизни / Перемены / Better Things / Сезон: 2 / Серии: 1-10 из 10 [2017 WEBRip] MVO [Jaskier] bober100 Скачать
    1 | 0
    Зарубежные сериалы [ 2.08 GB ] Все к лучшему / Радости жизни / Перемены / Better Things / Сезон: 1 / Серии: 1-10 из 10 [2016 HDTVRip] [MVO] killermax2013 Скачать
    1 | 0

    28-11-2019 20:33  

    Отключить всю рекламу на сайте

      Дорогой пользователь! Огромная просьба, поблагодарите релизера, оцените раздачу и оставьте свои комментарий, если Вы скачали Все к лучшему через торрент бесплатно! Внесите свою лепту в развитие PiratBit!
      Комментировать посты могут только пользователи прошедшие не сложную регистрацию
      Показать сообщения:    

      Все к лучшему через торрент
      Скачать бесплатно Все к лучшему
      Все к лучшему скачать торрент
      Все к лучшему смотреть онлайн
      Cкачать фильм Все к лучшему бесплатно
      Все к лучшему скачать торрент в хорошем качестве
      Все к лучшему смотреть онлайн бесплатно в хорошем качестве


      Вы не можете начинать темы
      Вы не можете отвечать на сообщения
      Вы не можете редактировать свои сообщения
      Вы не можете удалять свои сообщения
      Вы не можете голосовать в опросах
      Вы не можете прикреплять файлы к сообщениям
      Вы можете скачивать файлы