Ссылка на приватное зеркало всего за 1$. Внимание количество ограничено!!!

iTunes

iTunes

iTunes

1

iTunes

iTunes

iTunes

iTunes

iTunes

30
pack

$ от Little Big

ВАЖНО

!!Акция!!

Alien_RageХит недели

RePack

Resident Evil 21

ИГРА 18+

pack

RePack

jed

!!Акция!!

Alien_Rage

RePack

fifa19

RePack

Assassins Creed: Odyssey

RePack

NEED FOR SPEED™ PAYBACK

4 сезон

9 сезон

Бесстыжие 9 сезон

Все сериалы

все сериалы на PB.wtf

RePack

FAR CRY 5
  

Самый крутой день / Der geilste Tag (Флориан Давид Фиц) [2016, комедия, драма, WEB-DL 720p, Любительский (многоголосый) [ViruseProject] pb.wtf

Самый крутой день через торрент pb.wtf

Размер: 3.07 GB | Добавлен: 3 года 9 мес. назад | Торрент скачан:294 раза
Скачать  

11-09-2016 08:45 Самый крутой день Скачать торрент  


Самый крутой день / Der geilste Tag


ИНФОРМАЦИЯ:
Год выпуска:2016
Страна: Германия
Жанр: комедия, драма
Продолжительность: 01:53:49
Перевод: Любительский (многоголосый) [ViruseProject]
Режиссер: Флориан Давид Фиц

В Ролях:


Маттиас Швайгхёфер (Andi), Флориан Давид Фиц (Benno), Райнер Бок (Dr. Wüst), Lars Doppler (Pilot), Andreas Dubois (Rental car dealer), Jackie Hill (Waitress in Café), Александра Мария Лара (Mona), Frederic Linkemann (Polizist Frederic), Robert Nickisch (Pfleger Reiner), Кэролайн Рэпп (L. Gottschall), Роберт Шупп (Anwalt), Татя Зайбт

Описание:
Капризный и чрезмерно амбициозный пианист Анди и живущий каждым днём Бенно схожи только в одном: они оба скоро умрут. Не желая оставаться в хосписе, перед смертью они решают пережить лучший день своей жизни. Обманным путём получив деньги в банке, они отправляются в путешествие в Африку. Для обоих больных поездка становится настоящим вызовом, а одному из них предстоит впервые столкнуться со своим прошлым. Хотя путешествие и хранит в себе опасности, через ряд забавных и трагических моментов герои достигают своей цели: переживают лучший день своей жизни, а главное осознают - человек сам пишет историю своей жизни.

  • Мировая премьера:25 февраля 2016

    ТЕХ.ДАННЫЕ:
    Качество: WEB-DL 720p
    Формат: MKV
    Видео: AVC, 1280x528 (2.40:1), 3668 kbps, 23,976 fps, 0,226 bpp
    Аудио: русский / AC3 / 2.0 / 48 kHz / 192 kbps / ||


    General
    Unique ID : 188113057114804876659329430623304462646 (0x8D8541C84FC6FA8DB566FEB4F61EB136)
    Complete name : W:\Торенты\Der.geilste.tag.2016.720p.ViruseProject.mkv
    Format : Matroska
    Format version : Version 4 / Version 2
    File size : 3.07 GiB
    Duration : 1 h 53 min
    Overall bit rate : 3 861 kb/s
    Encoded date : UTC 2016-09-10 13:53:21
    Writing application : mkvmerge v6.5.0 ('Isn't she lovely') built on Oct 20 2013 12:50:05
    Writing library : libebml v1.3.0 + libmatroska v1.4.1

    Video
    ID : 1
    Format : AVC
    Format/Info : Advanced Video Codec
    Format profile : High@L4.1
    Format settings, CABAC : Yes
    Format settings, ReFrames : 5 frames
    Codec ID : V_MPEG4/ISO/AVC
    Duration : 1 h 53 min
    Bit rate : 3 668 kb/s
    Width : 1 280 pixels
    Height : 528 pixels
    Display aspect ratio : 2.40:1
    Frame rate mode : Constant
    Frame rate : 23.976 (24000/1001) FPS
    Color space : YUV
    Chroma subsampling : 4:2:0
    Bit depth : 8 bits
    Scan type : Progressive
    Bits/(Pixel*Frame) : 0.226
    Stream size : 2.86 GiB (93%)
    Writing library : x264 core 79 r1342kMod e8501ef
    Encoding settings : cabac=1 / ref=5 / deblock=1:0:0 / analyse=0x3:0x113 / me=umh / subme=8 / psy=1 / psy_rd=1.0:0.0 / mixed_ref=1 / me_range=16 / chroma_me=1 / trellis=1 / 8x8dct=1 / cqm=0 / deadzone=21,11 / chroma_qp_offset=-2 / threads=12 / nr=0 / decimate=1 / mbaff=0 / constrained_intra=0 / bframes=3 / b_pyramid=0 / b_adapt=1 / b_bias=0 / direct=1 / wpredb=1 / wpredp=2 / keyint=250 / keyint_min=25 / scenecut=40 / rc_lookahead=40 / rc=2pass / mbtree=1 / bitrate=3668 / ratetol=1.0 / qcomp=0.60 / qpmin=10 / qpmax=51 / qpstep=4 / cplxblur=20.0 / qblur=0.5 / ip_ratio=1.40 / aq=1:1.00
    Default : Yes
    Forced : No

    Audio
    ID : 2
    Format : AC-3
    Format/Info : Audio Coding 3
    Mode extension : CM (complete main)
    Format settings, Endianness : Big
    Codec ID : A_AC3
    Duration : 1 h 53 min
    Bit rate mode : Constant
    Bit rate : 192 kb/s
    Channel(s) : 2 channels
    Channel positions : Front: L R
    Sampling rate : 48.0 kHz
    Frame rate : 31.250 FPS (1536 spf)
    Compression mode : Lossy
    Stream size : 156 MiB (5%)
    Title : ViruseProject
    Language : Russian
    Default : Yes
    Forced : No
    Скриншоты:

    © Оформление by .::Ворон::.
    pb.wtf



  • Скачать Самый крутой день через торрент http://pic.kartinco.top/images/6/ordi9.jpg Скачать фильм Самый крутой день через торрент бесплантно в хорошем качестве Описание: Капризный и чрезмерно амбициозный пианист Анди и живущий каждым днём Бенно схожи только в одном: они оба скоро умрут. Не желая ... 9.6 10 5
    Info! Золотая раздача, скачанное не засчитывается.
    Торрент: Зарегистрирован [2016-09-11 08:45] · скачан: 294 раз
    Статус: T временная
    Размер: 3.07 GB
    Как cкачать? Как скачать Самый крутой день через торрент | qTorrent

    % Раздел Тема Автор DL S | L
    R.G. Resident & PiratVoice - Фильмы, Видео [ 2.33 GB ] Самый крутой день / Der geilste Tag [2016 BDRip-AVC Авторский Антон Карповский] R.G.Resident schultz Скачать
    1 | 0
    T Фильмы 2016 [DVDrip, WEB-DLRip, HDrip] (DUB, MVO) [ 1.46 GB ] Самый крутой день / Der geilste Tag [2016 WEB-DLRip Любительский [ViruseProject] Ворон Скачать
    1 | 0

    28-11-2019 20:33  

    Отключить всю рекламу на сайте

    11-09-2016 17:53 Самый крутой день Скачать торрент  

    Достучаться до небес 2?))pb.wtf



    13-09-2016 19:10 Самый крутой день Скачать торрент  

    Yurishe писал(а):

    Достучаться до небес 2?))

    "Достучаться до небес" неповторим. но попытка интересная.pb.wtf



      Дорогой пользователь! Огромная просьба, поблагодарите релизера, оцените раздачу и оставьте свои комментарий, если Вы скачали Самый крутой день через торрент бесплатно! Внесите свою лепту в развитие PiratBit!
      Комментировать посты могут только пользователи прошедшие не сложную регистрацию
      Показать сообщения:    

      Самый крутой день через торрент
      Скачать бесплатно Самый крутой день
      Самый крутой день скачать торрент
      Самый крутой день смотреть онлайн
      Cкачать фильм Самый крутой день бесплатно
      Самый крутой день скачать торрент в хорошем качестве
      Самый крутой день смотреть онлайн бесплатно в хорошем качестве


      Вы не можете начинать темы
      Вы не можете отвечать на сообщения
      Вы не можете редактировать свои сообщения
      Вы не можете удалять свои сообщения
      Вы не можете голосовать в опросах
      Вы не можете прикреплять файлы к сообщениям
      Вы можете скачивать файлы