Ссылка на приватное зеркало всего за 1$. Внимание количество ограничено!!!


iTunes

1+1

iTunes

мы

WEB-DL

1

iTunes

Чернобыль

iTunes

Ральф против интернета

Лицензия

ПШазам

Лицензия

Оно 2

WEB-DL

30
pack

Вам бонус

ВАЖНО

!!Акция!!

Alien_RageХит недели

RePack

Resident Evil 21

ИГРА 18+

pack

RePack

jed

!!Акция!!

Alien_Rage

RePack

fifa19

RePack

Assassins Creed: Odyssey

RePack

NEED FOR SPEED™ PAYBACK

4 сезон

9 сезон

Бесстыжие 9 сезон

Все сериалы

все сериалы на PB.wtf

RePack

FAR CRY 5
Ребята, катастрофически не хватает 1900р. для оплаты серверов за Октябрь (всвязи с блокировками трафик упал в 3 раза), 1-2р., выручайте.
  

Тупик / Cul-de-Sac (Роман Полански) [1966 г., триллер, драма, комедия, BDRip-AVC] 2 x MVO pb.wtf

Тупик через торрент pb.wtf

Размер: 2.74 GB | Добавлен: 3 года 3 мес. назад | Торрент скачан:10 раз
Скачать  

11-09-2016 13:15 Тупик Скачать торрент  

Тупик / Cul-de-Sac
Год выпуска: 1966
Страна: Великобритания
Жанр: триллер, драма, комедия
Продолжительность: 01:52:14
Перевод: Профессиональный (многоголосый)
Субтитры: Русские, английские

Режиссер: Роман Полански
Продюссер: Джин Гутовски, Майкл Клингер, Тони Тенсер
Сценарий: Жерар Браш, Роман Полански

Премьера в мире: 17 июня 1966



В ролях: Дональд Плезенс, Франсуаза Дорлеак, Лайнел Стандер, Джек МакГоуран, Йен Кваррье, Джеффри Самнер, Рене Хьюстон, Роберт Дорнинг, Мэри Кин, Уильям Франклин, Жаклин Биссет, Тревор Делани

Описание: Скрывающиеся от правосудия преступники пытаются найти приют в уединенном замке на морском берегу, где живут в прошлом коммерсант, а ныне чудаковатый художник Джордж и его жена Тереза. Один из негодяев, Ричард, слегка ранен в руку, а вот у Элберта дела плохи — ему прострелили живот. Несмотря на свое плачевное состояние, а может, и благодаря ему, бандиты берут обитателей замка в заложники…

Качество: BDRip-AVC {Cul-de-sac.1966.BluRay.Criterion.Collection.1080p.AVC.LPCM1.0-CHDBits)
Формат: MKV
Видео кодек: x264
Аудио кодек: AC3
Видео: MPEG-4 AVC, 2913 Кбит/с, 960x576, 23.976 кадр/с
Аудио#1: АС3, 2 ch, 192 Кбит/с, 48 kHz | Профессиональный многоголосый (SomeWax)
Аудио#2: АС3, 2 ch, 192 Кбит/с, 48 kHz | Профессиональный многоголосый (Кармен Видео)
Аудио#3: АС3, 1 ch, 192 Кбит/с, 48 kHz | Английский
Релиз от: Koenig
Общее
Уникальный идентификатор : 221157474584726743795830396811186382692 (0xA66161598E8AEAF0BC304136554DA764)
Полное имя : Cul-de-Sac.1966.BDRip-AVC.mkv
Формат : Matroska
Версия формата : Version 4 / Version 2
Размер файла : 2,74 Гбайт
Продолжительность : 1 ч. 52 м.
Общий поток : 3492 Кбит/сек
Режиссёр : Roman Polanski
Дата кодирования : UTC 2016-09-11 12:02:49
Программа кодирования : mkvmerge v9.2.0 ('Photograph') 32bit
Библиотека кодирования : libebml v1.3.3 + libmatroska v1.4.4
Обложка : Yes
Attachments : cover.jpg
Release : Koenig

Видео
Идентификатор : 1
Формат : AVC
Формат/Информация : Advanced Video Codec
Профиль формата : High@L4.1
Параметр CABAC формата : Да
Параметр ReFrames формата : 10 кадров
Идентификатор кодека : V_MPEG4/ISO/AVC
Продолжительность : 1 ч. 52 м.
Битрейт : 2913 Кбит/сек
Ширина : 960 пикселей
Высота : 576 пикселей
Соотношение сторон : 5:3
Режим частоты кадров : Постоянный
Частота кадров : 23,976 (24000/1001) кадра/сек
Цветовое пространство : YUV
Субдискретизация насыщенности : 4:2:0
Битовая глубина : 8 бит
Тип развёртки : Прогрессивная
Бит/(Пиксели*Кадры) : 0.220
Размер потока : 2,28 Гбайт (83%)
Библиотека кодирования : x264 core 148 r2692 64f4e24
Настройки программы : cabac=1 / ref=10 / deblock=1:-3:-3 / analyse=0x3:0x133 / me=umh / subme=10 / psy=1 / psy_rd=0.98:0.00 / mixed_ref=1 / me_range=32 / chroma_me=1 / trellis=2 / 8x8dct=1 / cqm=0 / deadzone=21,11 / fast_pskip=0 / chroma_qp_offset=-2 / threads=3 / lookahead_threads=1 / sliced_threads=0 / nr=0 / decimate=1 / interlaced=0 / bluray_compat=0 / constrained_intra=0 / bframes=9 / b_pyramid=2 / b_adapt=2 / b_bias=0 / direct=3 / weightb=1 / open_gop=0 / weightp=2 / keyint=240 / keyint_min=23 / scenecut=40 / intra_refresh=0 / rc_lookahead=40 / rc=2pass / mbtree=1 / bitrate=2913 / ratetol=1.0 / qcomp=0.60 / qpmin=10 / qpmax=51 / qpstep=4 / cplxblur=20.0 / qblur=0.5 / vbv_maxrate=50000 / vbv_bufsize=62500 / nal_hrd=none / filler=0 / ip_ratio=1.40 / aq=1:1.00
Default : Да
Forced : Нет

Аудио #1
Идентификатор : 2
Формат : AC-3
Формат/Информация : Audio Coding 3
Расширение режима : CM (complete main)
Параметр Endianness формата : Big
Идентификатор кодека : A_AC3
Продолжительность : 1 ч. 52 м.
Вид битрейта : Постоянный
Битрейт : 192 Кбит/сек
Каналы : 2 канала
Расположение каналов : Front: L R
Частота : 48,0 КГц
Частота кадров : 31,250 кадров/сек (1536 spf)
Метод сжатия : С потерями
Размер потока : 154 Мбайт (5%)
Заголовок : MVO - SomeWax
Язык : Russian
Default : Да
Forced : Нет

Аудио #2
Идентификатор : 3
Формат : AC-3
Формат/Информация : Audio Coding 3
Расширение режима : CM (complete main)
Параметр Endianness формата : Big
Идентификатор кодека : A_AC3
Продолжительность : 1 ч. 52 м.
Вид битрейта : Постоянный
Битрейт : 192 Кбит/сек
Каналы : 2 канала
Расположение каналов : Front: L R
Частота : 48,0 КГц
Частота кадров : 31,250 кадров/сек (1536 spf)
Метод сжатия : С потерями
Размер потока : 154 Мбайт (5%)
Заголовок : MVO - Кармен Видео
Язык : Russian
Default : Нет
Forced : Нет

Аудио #3
Идентификатор : 4
Формат : AC-3
Формат/Информация : Audio Coding 3
Расширение режима : CM (complete main)
Параметр Endianness формата : Big
Идентификатор кодека : A_AC3
Продолжительность : 1 ч. 52 м.
Вид битрейта : Постоянный
Битрейт : 192 Кбит/сек
Каналы : 1 канал
Расположение каналов : Front: C
Частота : 48,0 КГц
Частота кадров : 31,250 кадров/сек (1536 spf)
Метод сжатия : С потерями
Размер потока : 154 Мбайт (5%)
Заголовок : Original
Язык : English
Default : Нет
Forced : Нет

Текст #1
Идентификатор : 5
Формат : UTF-8
Идентификатор кодека : S_TEXT/UTF8
Идентификатор кодека/Информация : UTF-8 Plain Text
Продолжительность : 1 ч. 50 м.
Битрейт : 57 бит/сек
Count of elements : 969
Размер потока : 46,7 Кбайт (0%)
Заголовок : Full
Язык : Russian
Default : Да
Forced : Нет

Текст #2
Идентификатор : 6
Формат : UTF-8
Идентификатор кодека : S_TEXT/UTF8
Идентификатор кодека/Информация : UTF-8 Plain Text
Продолжительность : 1 ч. 48 м.
Битрейт : 46 бит/сек
Count of elements : 1200
Размер потока : 37,5 Кбайт (0%)
Заголовок : Full
Язык : English
Default : Нет
Forced : Нет

Меню
00:00:00.000 : en:Fed up
00:05:44.886 : en:"Anybody home?"
00:15:01.942 : en:Dickie
00:24:14.286 : en:Mr. Katelbach
00:29:54.459 : en:The chicken house
00:38:51.120 : en:Night owls
00:49:05.734 : en:"You need a lesson"
01:02:38.546 : en:"It's time"
01:09:53.856 : en:Visitors
01:22:03.043 : en:Lunch
01:31:50.796 : en:"You like?"
01:41:32.503 : en:Escape

Тупик скачать торрент

pb.wtf



Скачать Тупик через торрент http://pic1.kartinco.top/images/10/le2fl.jpg Скачать фильм Тупик через торрент бесплантно в хорошем качестве Описание: Скрывающиеся от правосудия преступники пытаются найти приют в уединенном замке на морском берегу, где живут в прошлом коммерсант, ... 10 10 1
Info! Золотая раздача, скачанное не засчитывается.
Торрент: Зарегистрирован [2016-09-11 13:15] · скачан: 10 раз
Статус: √ проверено
Размер: 2.74 GB
Как cкачать? Как скачать Тупик через торрент | qTorrent

28-11-2019 20:33  

Отключить всю рекламу на сайте

    Дорогой пользователь! Огромная просьба, поблагодарите релизера, оцените раздачу и оставьте свои комментарий, если Вы скачали Тупик через торрент бесплатно! Внесите свою лепту в развитие PiratBit!
    Комментировать посты могут только пользователи прошедшие не сложную регистрацию
    Показать сообщения:    

    Тупик через торрент
    Скачать бесплатно Тупик
    Тупик скачать торрент
    Тупик смотреть онлайн
    Cкачать фильм Тупик бесплатно
    Тупик скачать торрент в хорошем качестве
    Тупик смотреть онлайн бесплатно в хорошем качестве


    Вы не можете начинать темы
    Вы не можете отвечать на сообщения
    Вы не можете редактировать свои сообщения
    Вы не можете удалять свои сообщения
    Вы не можете голосовать в опросах
    Вы не можете прикреплять файлы к сообщениям
    Вы можете скачивать файлы