Ссылка на приватное зеркало всего за 1$. Внимание количество ограничено!!!

OK

1+1

iTunes

мы

OK

1

WEB-DLRip

Джокер

Пифагор

Ведьмак / The Witcher сериал

Лицензия

ПШазам

ОК

Оно 2

iTunes

30
pack

Вам бонус

ВАЖНО

!!Акция!!

Alien_RageХит недели

RePack

Resident Evil 21

ИГРА 18+

pack

RePack

jed

!!Акция!!

Alien_Rage

RePack

fifa19

RePack

Assassins Creed: Odyssey

RePack

NEED FOR SPEED™ PAYBACK

4 сезон

9 сезон

Бесстыжие 9 сезон

Все сериалы

все сериалы на PB.wtf

RePack

FAR CRY 5
  

Пятница (Евгений Шелякин) [2016, комедия, DVD9] R5 pb.wtf

Скачать  

11-09-2016 13:48 Пятница Скачать торрент  


Пятница
«Все ждем пятницу!»
Страна: Россия
Студия: RSS Production
Жанр: комедия
Год выпуска: 2016
Мировая премьера: 23 марта 2016
Российская премьера: 26 февраля 2016
Дата выхода DVD: 27 июня 2016
Дата выхода Blu-Ray: 27 июня 2016
Продолжительность: 01:23:26
Перевод: Оригинал [Лицензия]
Cубтитры: нет
Оригинальная аудиодорожка: русский
Режиссер: Евгений Шелякин
В ролях: Данила Козловский, Настасья Самбурская, Катерина Шпица, Павел Деревянко, Кирилл Плетнёв, Евгения Брик (Хиривская), Антон Шагин, Ян Цапник, Евгений Стычкин, Сергей Бурунов, Сергей Чирков, Аристарх Венес, Максим Емельянов, Никита Павленко, Михаил Полицеймако, Алексей Гришин, Айгуль Мильштейн, Лилия Лаврова, Ирина Бутанаева, Елена Лотова, Александр Зельский, Наталья Бардо, Дарья Пугачева, Эммануил Виторган, Юлия Чиплиева
Описание: Что если азартный миллионер на одну ночь станет официантом, офисный лузер будет звездой самой яркой вечеринки, а двум «заклятым» друзьям придется искать кенгуру ночью в подмосковном лесу? У каждого своя пятница! Как она закончится для каждого, знает только утро субботы ;)
Бонусы: Анонсы

Качество: DVD9 R5
Формат: DVD-Video
Видео кодек: MPEG2
Аудио кодек: AC3
Видео: PAL 16:9 (720x576(0.716)) MPEG Video, 25,000 кадр/сек, 7424 Кбит/сек
Аудио: Russian (Dolby AC3, 6 ch) 448 Кбит/сек, 48,0 КГц



Title: Pjatnica.2016.DVD9
Size: 5.14 Gb ( 5 390 410,00 KBytes ) - DVD-9
Enabled regions: 1, 2, 3, 4, 5, 6, 7, 8

VTS_01 :
Play Length: 00:00:15
Video: PAL 4:3 (720x576) VBR
Audio:
Not specified (Dolby AC3, 2 ch)

VTS_02 :
Play Length: 00:00:05
Video: PAL 16:9 (720x576) VBR, Auto Letterboxed
Audio:
Not specified (Dolby AC3, 2 ch)

VTS_03 :
Play Length: 00:02:27
Video: PAL 16:9 (720x576) VBR, Auto Letterboxed
Audio:
Russian (Dolby AC3, 2 ch)

VTS_04 :
Play Length: 00:01:51
Video: PAL 16:9 (720x576) VBR, Auto Letterboxed
Audio:
Russian (Dolby AC3, 2 ch)

VTS_05 :
Play Length: 00:02:03
Video: PAL 16:9 (720x576) VBR, Auto Letterboxed
Audio:
Russian (Dolby AC3, 2 ch)

VTS_06 :
Play Length: 00:01:28
Video: PAL 16:9 (720x576) VBR, Auto Letterboxed
Audio:
Russian (Dolby AC3, 2 ch)

VTS_07 :
Play Length: 00:01:34
Video: PAL 16:9 (720x576) VBR, Auto Letterboxed
Audio:
Russian (Dolby AC3, 2 ch)

VTS_08 :
Play Length: 00:01:44
Video: PAL 16:9 (720x576) VBR, Auto Letterboxed
Audio:
Russian (Dolby AC3, 2 ch)

VTS_09 :
Play Length: 01:23:26
Video: PAL 16:9 (720x576) VBR, Auto Letterboxed
Audio:
Russian (Dolby AC3, 6 ch)

VTS_10 :
Play Length: 00:00:01
Video: PAL 16:9 (720x576) VBR, Auto Letterboxed
Audio:
Russian (Dolby AC3, 2 ch)

* Menus Information *

VIDEO_TS Menu
Video:
PAL 16:9 (720x576) VBR
Auto Pan&Scan
Audio:
Not specified (LinearPCM, 2 ch)
English Language Unit :
Title Menu

VTS_01 Menu
Video:
PAL 16:9 (720x576) VBR
Auto Letterboxed
Audio:
Not specified (Dolby AC3, 2 ch)
English Language Unit :
Root Menu
Chapter (PTT) Menu

VTS_02 Menu
Video:
NTSC 4:3 (720x480) VBR
Auto Pan&Scan, Auto Letterboxed
English Language Unit :
Root Menu
Chapter (PTT) Menu

VTS_03 Menu
Video:
NTSC 4:3 (720x480) VBR
Auto Pan&Scan, Auto Letterboxed
English Language Unit :
Root Menu
Chapter (PTT) Menu

VTS_04 Menu
Video:
NTSC 4:3 (720x480) VBR
Auto Pan&Scan, Auto Letterboxed
English Language Unit :
Root Menu
Chapter (PTT) Menu

VTS_05 Menu
Video:
NTSC 4:3 (720x480) VBR
Auto Pan&Scan, Auto Letterboxed
English Language Unit :
Root Menu
Chapter (PTT) Menu

VTS_06 Menu
Video:
NTSC 4:3 (720x480) VBR
Auto Pan&Scan, Auto Letterboxed
English Language Unit :
Root Menu
Chapter (PTT) Menu

VTS_07 Menu
Video:
NTSC 4:3 (720x480) VBR
Auto Pan&Scan, Auto Letterboxed
English Language Unit :
Root Menu
Chapter (PTT) Menu

VTS_08 Menu
Video:
NTSC 4:3 (720x480) VBR
Auto Pan&Scan, Auto Letterboxed
English Language Unit :
Root Menu
Chapter (PTT) Menu

VTS_09 Menu
Video:
NTSC 4:3 (720x480) VBR
Auto Pan&Scan, Auto Letterboxed
English Language Unit :
Root Menu
Chapter (PTT) Menu

VTS_10 Menu
Video:
NTSC 4:3 (720x480) VBR
Auto Pan&Scan, Auto Letterboxed
English Language Unit :
Root Menu
Chapter (PTT) Menu
Общее
Полное имя : D:\Новинки 2016\Pjatnica.2016.DVD9\VIDEO_TS\VTS_09_2.VOB
Формат : MPEG-PS
Размер файла : 1000 Мбайт
Продолжительность : 17 м. 24 с.
Режим общего битрейта : Переменный
Общий поток : 8032 Кбит/сек

Видео
Идентификатор : 224 (0xE0)
Формат : MPEG Video
Версия формата : Version 2
Профиль формата : Main@Main
Параметр BVOP формата : Да
Параметр матрицы формата : По умолчанию
Параметр GOP формата : M=3, N=12
Продолжительность : 17 м. 24 с.
Вид битрейта : Переменный
Битрейт : 7424 Кбит/сек
Максимальный битрейт : 8500 Кбит/сек
Ширина : 720 пикселей
Высота : 576 пикселей
Соотношение сторон : 16:9
Частота кадров : 25,000 кадров/сек
Стандарт вещания : PAL
Цветовое пространство : YUV
Субдискретизация насыщенности : 4:2:0
Битовая глубина : 8 бит
Тип развёртки : Прогрессивная
Метод сжатия : С потерями
Бит/(Пиксели*Кадры) : 0.716
Временной код первого кадра : 00:18:02:19
Оригинал временного кода : Group of pictures header
Размер потока : 924 Мбайт (92%)

Аудио
Идентификатор : 189 (0xBD)-128 (0x80)
Формат : AC-3
Формат/Информация : Audio Coding 3
Расширение режима : CM (complete main)
Параметр Endianness формата : Big
Режим смешивания : DVD-Video
Продолжительность : 17 м. 24 с.
Вид битрейта : Постоянный
Битрейт : 448 Кбит/сек
Каналы : 6 каналов
Расположение каналов : Front: L C R, Side: L R, LFE
Частота : 48,0 КГц
Частота кадров : 31,250 кадров/сек (1536 spf)
Метод сжатия : С потерями
Задержка видео : -344 мс.
Размер потока : 55,8 Мбайт (6%)




pb.wtf



Скачать
Чтобы иметь возможность скачивать с Торрент Трекера, нужно Зарегистрироваться

Как скачивать  ·  Рейтинг и ограничения

28-11-2019 20:33  

Отключить всю рекламу на сайте

    Дорогой пользователь! Огромная просьба, поблагодарите релизера, оцените раздачу и оставьте свои комментарий, если Вы скачали Пятница через торрент бесплатно! Внесите свою лепту в развитие PiratBit!
    Комментировать посты могут только пользователи прошедшие не сложную регистрацию
    Показать сообщения:    

    Пятница через торрент
    Скачать бесплатно Пятница
    Пятница скачать торрент
    Пятница смотреть онлайн
    Cкачать фильм Пятница бесплатно
    Пятница скачать торрент в хорошем качестве
    Пятница смотреть онлайн бесплатно в хорошем качестве


    Вы не можете начинать темы
    Вы не можете отвечать на сообщения
    Вы не можете редактировать свои сообщения
    Вы не можете удалять свои сообщения
    Вы не можете голосовать в опросах
    Вы не можете прикреплять файлы к сообщениям
    Вы не можете скачивать файлы