Ссылка на приватное зеркало нашего сайта всего за 1$. Внимание количество ограничено!!!

2 сезон

iTunes

1 сезон

1

2 сезон

2 сезон

iTunes

1 сезон

RePack

30

Новинка

ВАЖНО

ИГРА 18+

pack

RePack

MK11
pack

Забери бонус

RePack

jed

!!Акция!!

Alien_Rage

RePack

fifa19

RePack

Assassins Creed: Odyssey

RePack

NEED FOR SPEED™ PAYBACK

4 сезон

9 сезон

Бесстыжие 9 сезон

Все сериалы

все сериалы на PB.wtf

RePack

FAR CRY 5
  

Наемник Куорри / Quarry / Сезон: 1 / Серии 1-8 из 8 (Грег Яйтанс / Greg Yaitanes, Джон Хиллкоут / John Hillcoat) [2016 , США, драма, HDTVRip-AVC] MVO [BaibaKo] pb.wtf

Наемник Куорри через торрент pb.wtf

Размер: 8.78 GB | Добавлен: 4 года назад | Торрент скачан:88 раз
Скачать  

12-09-2016 01:11 Наемник Куорри Скачать торрент  


Наемник Куорри / Quarry

«Нет легких путей»


  • Год выпуска: 2016
  • Страна: США
  • Жанр: драма
  • Продолжительность: 01:14:08 (Серия)
  • Перевод: Профессиональный многоголосый [BaibaKo]
  • Режиссер: Грег Яйтанс / Greg Yaitanes, Джон Хиллкоут / John Hillcoat
  • В ролях:

    Логан Маршалл-Грин (Quarry), Джоди Бальфур (Joni), Питер Муллан (The Broker), Никки Амука-Бёрд (Ruth), Дэймон Херриман (Buddy), Эдоардо Баллерини (Karl), Хлоя Элиз (Lou), Джош Рэндэлл (Detective Tommy Olsen), Мустафа Жакир (Moses), Джошуа Дж. Уильямс (Marcus), Хэппи Андерсон (Detective Verne Ratliff), Том Буи (Mask Man)


  • Дело происходит в 1973 году. Снайпер Куорри возвращается из третьей военной командировки во Вьетнам и обнаруживает, что люди не видят в нём героя, скорее демонизируя образ американского солдата, а старые друзья так и вовсе от него отвернулись. От разочарования он подаётся в разветвлённую сеть наёмных убийц и коррупционеров, действующую на всей протяжённости Миссисипи.
  • Рейтинг:



  • Качество: HDTVRip-AVC
  • Формат: :MPEG-4
  • Видео кодек: AVC
  • Аудио кодек: AC3
  • Видео: 1024x576 (16:9), 2000 kbps, 23,976 fps, 0,141 bpp
  • Аудио №1: русский / 5.1 / 48 kHz / 384 kbps / 16 bit |[BaibaKo]|
  • Аудио №2: английский / 5.1 / 48 kHz / 384 kbps / 16 bit
  • Релиз от: GEKADOL

    Внимание! Раздача ведётся путём добавления новых серий; при каждом добавлении создаётся новый торрент. Чтобы начать докачку новой серии, пользователям необходимо сделать следующее:
    (1) остановить скачивание,
    (2) удалить старый торрент у себя из клиента (старые серии удалять не надо),
    (3) скачать новый торрент и запустить его у себя в клиенте вместо старого, при этом указать клиенту путь в старую папку куда и должно происходить скачивание новых серий.
    Ваш клиент при этом должен произвести хеширование (проверку) старой папки (если не производит сам - помогите ему сделать это), и будет докачивать только те серии которых у вас ещё нет. Старые серии при этом не удаляются, а продолжают раздаваться!
    Eсли вы уже удалили старые серии, то предотвратить повторную закачку старых серий можно, отжав галочку в соответсвующих местах при запуске нового торрента. По возможности, желательно не удалять старые серии как можно дольше чтобы релизёр не столько продолжал раздавать старые серии, а смог сконцентрироваться на новых.

    General
    Complete name : H:\Наёмник Куорри (Quarry)\Quarry.s01e01.HDTVRip-AVC.Rus.Eng.BaibaKo.tv.mp4
    Format : MPEG-4
    Format profile : Base Media
    Codec ID : isom (isom/iso2/avc1/mp41)
    File size : 1.44 GiB
    Duration : 1 h 14 min
    Overall bit rate : 2 775 kb/s
    Writing application : XviD4PSP 7.0.290 DAILY
    HDVideo : Yes
    encoding_info : MATROSKA / WEBM > MP4 Произвольный / H264 > X264 CBR 2000kbps HQ / AC3 > AC3 CBR 384kbps / AC3 > AC3 CBR 384kbps

    Video
    ID : 1
    Format : AVC
    Format/Info : Advanced Video Codec
    Format profile : High@L4.1
    Format settings, CABAC : Yes
    Format settings, ReFrames : 4 frames
    Codec ID : avc1
    Codec ID/Info : Advanced Video Coding
    Duration : 1 h 14 min
    Bit rate : 2 000 kb/s
    Width : 1 024 pixels
    Height : 576 pixels
    Display aspect ratio : 16:9
    Frame rate mode : Constant
    Frame rate : 23.976 (24000/1001) FPS
    Color space : YUV
    Chroma subsampling : 4:2:0
    Bit depth : 8 bits
    Scan type : Progressive
    Bits/(Pixel*Frame) : 0.141
    Stream size : 1.04 GiB (72%)
    Writing library : x264 core 148 r2705M 3f5ed56
    Encoding settings : cabac=1 / ref=3 / deblock=1:-1:-1 / analyse=0x3:0x133 / me=hex / subme=7 / psy=1 / psy_rd=1.00:0.20 / mixed_ref=1 / me_range=16 / chroma_me=1 / trellis=1 / 8x8dct=1 / cqm=0 / deadzone=21,11 / fast_pskip=1 / chroma_qp_offset=-3 / threads=5 / lookahead_threads=1 / sliced_threads=0 / nr=0 / decimate=1 / interlaced=0 / bluray_compat=0 / constrained_intra=0 / bframes=3 / b_pyramid=2 / b_adapt=2 / b_bias=0 / direct=3 / weightb=1 / open_gop=0 / weightp=2 / keyint=230 / keyint_min=23 / scenecut=40 / intra_refresh=0 / rc_lookahead=40 / rc=cbr / mbtree=1 / bitrate=2000 / ratetol=1.0 / qcomp=0.60 / qpmin=0 / qpmax=69 / qpstep=4 / vbv_maxrate=2000 / vbv_bufsize=30000 / nal_hrd=none / filler=0 / ip_ratio=1.40 / aq=1:1.00

    Audio #1
    ID : 2
    Format : AC-3
    Format/Info : Audio Coding 3
    Mode extension : CM (complete main)
    Format settings, Endianness : Big
    Codec ID : ac-3
    Duration : 1 h 14 min
    Bit rate mode : Constant
    Bit rate : 384 kb/s
    Channel(s) : 6 channels
    Channel positions : Front: L C R, Side: L R, LFE
    Sampling rate : 48.0 kHz
    Frame rate : 31.250 FPS (1536 spf)
    Bit depth : 16 bits
    Compression mode : Lossy
    Stream size : 204 MiB (14%)
    Language : Russian
    Default : Yes
    Alternate group : 1

    Audio #2
    ID : 3
    Format : AC-3
    Format/Info : Audio Coding 3
    Mode extension : CM (complete main)
    Format settings, Endianness : Big
    Codec ID : ac-3
    Duration : 1 h 14 min
    Bit rate mode : Constant
    Bit rate : 384 kb/s
    Channel(s) : 6 channels
    Channel positions : Front: L C R, Side: L R, LFE
    Sampling rate : 48.0 kHz
    Frame rate : 31.250 FPS (1536 spf)
    Bit depth : 16 bits
    Compression mode : Lossy
    Stream size : 204 MiB (14%)
    Language : English
    Default : No
    Alternate group : 1





    Внимание! В сериале присутствуют сцены сексуального характера и ненормативная лексика!

    Скриншоты:
    скриншот   скриншот   скриншот   скриншот   скриншот   скриншот   скриншот  
    скриншот  

    Раздача ведётся путём добавления новых серий. Добавлена 8 серия (02.11.2016).Просьба перекачать торрент файл.

    pb.wtf



  • Скачать Наемник Куорри через торрент http://pic1.kartinco.top/images/10/21vx9.jpg Скачать фильм Наемник Куорри через торрент бесплантно в хорошем качестве qw.png Дело происходит в 1973 году. Снайпер Куорри возвращается из третьей военной командировки во Вьетнам и обнаруживает, что люди не ... 9.1 10 10
    Info! Золотая раздача, скачанное не засчитывается.
    Торрент: Зарегистрирован [2016-11-02 02:01] · скачан: 88 раз
    Статус: √ проверено
    Размер: 8.78 GB
    Как cкачать? Как скачать Наемник Куорри через торрент | qTorrent

    % Раздел Тема Автор DL S | L
    Наши сериалы [ 9.84 GB ] Наемник Куорри / Quarry / Сезон: 1 / Серии: 1-8 из 8 [2016 HDTVRip 720p] MVO [Amedia] bober100 Скачать
    1 | 0
    Зарубежные сериалы [ 5.58 GB ] Наемник Куорри / Quarry / Сезон 1 / 1-8 серии из 8 [2016 нео-нуар HDTVRip] MVO [AlexFilm] bober100 Скачать
    1 | 0
    Зарубежные сериалы [ 5.77 GB ] Наемник Куорри / Карьер / Quarry / Сезон: 1 / Серии 1-8 из 8 [2016 HDTVRip] [MVO] killermax2013 Скачать
    1 | 0
    Зарубежные сериалы [ 10.11 GB ] Наемник Куорри / Карьер / Quarry / Сезон: 1 / Серии 1-8 из 8 [2016 HDTVRip 720p] [MVO] + [Orig] killermax2013 Скачать
    1 | 0


    Последний раз редактировалось: GEKADOL (2016-11-02 02:01), всего редактировалось 6 раз(а)

    28-11-2019 20:33  

    Отключить всю рекламу на сайте

    19-09-2016 13:03 Наемник Куорри Скачать торрент  

    тупой,затянутый сериал-несоветуюpb.wtf



    20-09-2016 19:48 Наемник Куорри Скачать торрент  

    спасибо за отзыв, время сохранил свое )))pb.wtf



    28-09-2016 07:12 Наемник Куорри Скачать торрент  

    первая серия - отличная(почти всегда так), вторая - на уровне, третья - тоска смертная. Пока можно назвать фильм - Неумеха-Куорри. Надеюсь, раскачается.
    ЗЫ: Что там в нем увидел Посредник???))))pb.wtf



    06-10-2016 18:48 Наемник Куорри Скачать торрент  

    не господа ,а во ожидали что он в каждой серии будет мочить как Рэмбо по200 человек нет уж нормальный сериалpb.wtf



    24-10-2016 10:36 Наемник Куорри Скачать торрент  

    я и забыл про негоpb.wtf



    29-09-2017 16:11 Наемник Куорри Скачать торрент  

    Хороший сериал, любителям человеков пауков и всяких капитанов америков не подойдет. Интересно когда второй сезон?pb.wtf



      Дорогой пользователь! Огромная просьба, поблагодарите релизера, оцените раздачу и оставьте свои комментарий, если Вы скачали Наемник Куорри через торрент бесплатно! Внесите свою лепту в развитие PiratBit!
      Комментировать посты могут только пользователи прошедшие не сложную регистрацию
      Показать сообщения:    

      Наемник Куорри через торрент
      Скачать бесплатно Наемник Куорри
      Наемник Куорри скачать торрент
      Наемник Куорри смотреть онлайн
      Cкачать фильм Наемник Куорри бесплатно
      Наемник Куорри скачать торрент в хорошем качестве
      Наемник Куорри смотреть онлайн бесплатно в хорошем качестве


      Вы не можете начинать темы
      Вы не можете отвечать на сообщения
      Вы не можете редактировать свои сообщения
      Вы не можете удалять свои сообщения
      Вы не можете голосовать в опросах
      Вы не можете прикреплять файлы к сообщениям
      Вы можете скачивать файлы