Мега распродажа FORZA HORIZON 4 ULTIMATE+ВСЕ DLC+ОНЛАЙН всего за 499р. 349 руб. (супер цена). Внимание количество ограничено!!!

Лицензия

30

iTunes

мы

iTunes

1

1 сезон

Чернобыль

1 сезон

Ральф против интернета

MVO

Покемон. Детектив Пикачу

8 сезон

Игра престолов

iTunes

1+1

ИГРА 18+

pack

ВАЖНО

!!Акция!!

Alien_RageХит недели

RePack

Resident Evil 21
pack

RePack

Metro:Exodus

!!Акция!!

Alien_Rage

RePack

fifa19

RePack

Assassins Creed: Odyssey

RePack

NEED FOR SPEED™ PAYBACK

3 сезон

9 сезон

Бесстыжие 9 сезон

Все сериалы

все сериалы на PB.wtf

RePack

FAR CRY 5
Ребята, катастрофически не хватает 2730р. для оплаты серверов за МАЙ (всвязи с блокировками трафик упал в 3 раза), 1-2р., выручайте.
  

Смертельные преследователи / The Deadly Trackers (Бэрри Шир, Сэмюэл Фуллер) [1973 г., драма, вестерн, BDRip] MVO pb.wtf

Смертельные преследователи через торрент pb.wtf

Размер: 1.4 GB | Добавлен: 2 года 9 мес. назад | Торрент скачан:8 раз
Скачать  

12-09-2016 10:41 Смертельные преследователи Скачать торрент  

Смертельные преследователи / The Deadly Trackers
Год выпуска: 1973
Страна: США
Жанр: драма, вестерн
Продолжительность: 01:45:25
Перевод: Профессиональный (многоголосый) [ТК Россия]

Режиссер: Бэрри Шир, Сэмюэл Фуллер
Продюссер: Фуад Сэд, Дэвид Оливер, Эдвард Розен
Сценарий: Лукас Хеллер, Сэмюэл Фуллер

Премьера в мире: 21 декабря 1973



В ролях: Ричард Харрис, Род Тейлор, Аль Леттьери, Невилл Брэнд, Уильям Смит, Пол Бенджамин, Педро Армендарис мл., Исела Вега, Келли Джин Питерс, Уильям Брайант

Описание: Чтобы отомстить за убийство жены и сына, шериф маленького техасского городка выслеживает грабителя банка и его банду, ушедших от погони в Мексику…

Качество: BDRip (DEADLY_TRACKERS_1973_REMUX_HDCLUB)
Формат: AVI
Видео кодек: XviD
Аудио кодек: AC3
Видео: XviD, 1706 Кбит/с, 704x400, 23.976 кадр/с
Аудио: AC3, 2 ch, 192 Кбит/с, 48 kHz
Релиз от: Koenig
Общее
Полное имя : The.Deadly.Trackers.1973.BDRip.avi
Формат : AVI
Формат/Информация : Audio Video Interleave
Размер файла : 1,40 Гбайт
Продолжительность : 1 ч. 45 м.
Общий поток : 1907 Кбит/сек
Программа кодирования : VirtualDubMod 1.5.10.2 (build 2540/release)
Библиотека кодирования : VirtualDubMod build 2540/release

Видео
Идентификатор : 0
Формат : MPEG-4 Visual
Профиль формата : Advanced Simple@L5
Параметр BVOP формата : 1
Параметр QPel формата : Нет
Параметр GMC формата : Без точки перехода
Параметр матрицы формата : Выборочная
Идентификатор кодека : XVID
Идентификатор кодека/Подсказка : XviD
Продолжительность : 1 ч. 45 м.
Битрейт : 1706 Кбит/сек
Ширина : 704 пикселя
Высота : 400 пикселей
Соотношение сторон : 16:9
Частота кадров : 23,976 (23976/1000) кадра/сек
Цветовое пространство : YUV
Субдискретизация насыщенности : 4:2:0
Битовая глубина : 8 бит
Тип развёртки : Прогрессивная
Метод сжатия : С потерями
Бит/(Пиксели*Кадры) : 0.253
Размер потока : 1,26 Гбайт (89%)
Библиотека кодирования : XviD 1.2.0.dev47 (UTC 2006-11-01)

Аудио
Идентификатор : 1
Формат : AC-3
Формат/Информация : Audio Coding 3
Расширение режима : CM (complete main)
Параметр Endianness формата : Big
Идентификатор кодека : 2000
Продолжительность : 1 ч. 45 м.
Вид битрейта : Постоянный
Битрейт : 192 Кбит/сек
Каналы : 2 канала
Расположение каналов : Front: L R
Частота : 48,0 КГц
Частота кадров : 31,250 кадров/сек (1536 spf)
Метод сжатия : С потерями
Размер потока : 145 Мбайт (10%)
Выравнивание : Разделение по промежуткам
Продолжительность промежутка : 42 мс. (1,00 видеокадр)
Время предзагрузки промежутка : 500 мс.

Смертельные преследователи скачать торрент

pb.wtf



Скачать Смертельные преследователи через торрент http://pic1.kartinco.top/images/10/o68r2.jpg Скачать фильм Смертельные преследователи через торрент бесплантно в хорошем качестве Описание: Чтобы отомстить за убийство жены и сына, шериф маленького техасского городка выслеживает грабителя банка и его банду, ушедших от ... 5 10 1
Торрент: Зарегистрирован [2016-09-12 10:41] · скачан: 8 раз
Статус: √ проверено
Размер: 1.4 GB
Как cкачать? Как скачать Смертельные преследователи через торрент | qTorrent


>> Регистрируемся здесь <<






Отзывы и комментарии о схеме читаем и пишем здесь: ---> Отзывы и комментарии о схеме

Новые благодарочки в телеграм довольных пользователей:
скриншот   скриншот   скриншот   скриншот   скриншот
    Дорогой пользователь! Огромная просьба, поблагодарите релизера, оцените раздачу и оставьте свои комментарий, если Вы скачали Смертельные преследователи через торрент бесплатно! Внесите свою лепту в развитие PiratBit!
    Комментировать посты могут только пользователи прошедшие не сложную регистрацию
    Показать сообщения:    

    Смертельные преследователи через торрент
    Скачать бесплатно Смертельные преследователи
    Смертельные преследователи скачать торрент
    Смертельные преследователи смотреть онлайн
    Cкачать фильм Смертельные преследователи бесплатно
    Смертельные преследователи скачать торрент в хорошем качестве
    Смертельные преследователи смотреть онлайн бесплатно в хорошем качестве


    Вы не можете начинать темы
    Вы не можете отвечать на сообщения
    Вы не можете редактировать свои сообщения
    Вы не можете удалять свои сообщения
    Вы не можете голосовать в опросах
    Вы не можете прикреплять файлы к сообщениям
    Вы можете скачивать файлы