Ссылка на приватное зеркало нашего сайта всего за 1$. Внимание количество ограничено!!!

2 сезон

iTunes

1 сезон

1

iTunes

iTunes

iTunes

1 сезон

RePack

30

ИГРА 18+

pack

ВАЖНО

!!Акция!!

Alien_RageХит недели

RePack

MK11
pack

Забери бонус

RePack

jed

!!Акция!!

Alien_Rage

RePack

fifa19

RePack

Assassins Creed: Odyssey

RePack

NEED FOR SPEED™ PAYBACK

4 сезон

9 сезон

Бесстыжие 9 сезон

Все сериалы

все сериалы на PB.wtf

RePack

FAR CRY 5
  

Сильнее судьбы (серии 1-16 из 16) (Александр Хван ) [2014 , мелодрама, WEBRip] pb.wtf

Сильнее судьбы через торрент pb.wtf

Размер: 8.68 GB | Добавлен: 4 года 1 мес. назад | Торрент скачан:29 раз
Скачать  

12-09-2016 14:23 Сильнее судьбы Скачать торрент  

Сильнее судьбы (серии 1-16 из 16)

Год выпуска: 2014

Страна: Россия
Жанр: мелодрама
Продолжительность: 00:45:17
Перевод: Оригинал
Режиссер: Александр Хван
В ролях: Анастасия Ричи (Анна Колчина), Наталия Антонова (Ирина Колчина), Алексей Янин (Николай Портнов), Максим Ратинер, Алексей Эйбоженко (дальнобойщик-свидетель), Дмитрий Янышевский (Славик), Елена Дробышева (Валентина Ильинична), Дмитрий Арбенин (Глеб), Михаил Жигалов (дед Иван), Анна Якунина (Лиза), Олег Леушин (Олег), Петр Баранчеев (Вихров)
Описание:
Аня, добрая трудолюбивая девушка, живет со своей мамой Ириной в поселке Опушкино. Всю жизнь Ирина работает, не покладая рук, чтобы обеспечить дочке счастливое будущее, но семья едва сводит концы с концами.
Однажды на городское гуляние из Москвы приезжает сын главы поселковой администрации — избалованный и своенравный Глеб. Все местные красавицы без ума от «мажорного» парня, но он неожиданно заглядывается на Аню, которую раньше не замечал.
Но романтические мечты в одночасье уходят на второй план, когда в семью приходит беда. Ирина, обороняясь от приставаний заезжего бандита, нечаянно убивает его…
Рейтинг:

Качество: WEBRip
Формат: AVI
Видео: XviD, 720x400 (16:9), 1513 kbps, 25 fps, 0,210 bpp
Аудио: AC3 / 2.0 / 48 kHz / 192 kbps /

General
Complete name Sil'nee_sud'by_1-16iz16_XviD_WEBRip\Sil'nee_sud'by_01_WEBRip.avi
Format : AVI
Format/Info : Audio Video Interleave
File size : 555 MiB
Duration : 45 min
Overall bit rate : 1 715 kb/s
Writing library : VirtualDub build 35491/release

Video
ID : 0
Format : MPEG-4 Visual
Format profile : Advanced Simple@L5
Format settings, BVOP : 2
Format settings, QPel : No
Format settings, GMC : No warppoints
Format settings, Matrix : Default (H.263)
Codec ID : XVID
Codec ID/Hint : XviD
Duration : 45 min
Bit rate : 1 513 kb/s
Width : 720 pixels
Height : 400 pixels
Display aspect ratio : 16:9
Frame rate : 25.000 FPS
Color space : YUV
Chroma subsampling : 4:2:0
Bit depth : 8 bits
Scan type : Progressive
Compression mode : Lossy
Bits/(Pixel*Frame) : 0.210
Stream size : 490 MiB (88%)
Writing library : XviD 67

Audio
ID : 1
Format : AC-3
Format/Info : Audio Coding 3
Mode extension : CM (complete main)
Format settings, Endianness : Big
Codec ID : 2000
Duration : 45 min
Bit rate mode : Constant
Bit rate : 192 kb/s
Channel(s) : 2 channels
Channel positions : Front: L R
Sampling rate : 48.0 kHz
Frame rate : 31.250 FPS (1536 spf)
Compression mode : Lossy
Stream size : 62.2 MiB (11%)
Alignment : Aligned on interleaves
Interleave, duration : 40 ms (1.00 video frame)
Interleave, preload duration : 512 ms
Скриншоты:
pb.wtf



Скачать Сильнее судьбы через торрент http://i3.imageban.ru/out/2016/09/12/549038ba6fb4b23f1f887ab2752c4592.jpg Скачать фильм Сильнее судьбы через торрент бесплантно в хорошем качестве Описание: Аня, добрая трудолюбивая девушка, живет со своей мамой Ириной в поселке Опушкино. Всю жизнь Ирина работает, не покладая рук, ... 10 10 2
Торрент: Зарегистрирован [2016-09-12 14:23] · скачан: 29 раз
Статус: √ проверено
Размер: 8.68 GB
Как cкачать? Как скачать Сильнее судьбы через торрент | qTorrent

28-11-2019 20:33  

Отключить всю рекламу на сайте

    Дорогой пользователь! Огромная просьба, поблагодарите релизера, оцените раздачу и оставьте свои комментарий, если Вы скачали Сильнее судьбы через торрент бесплатно! Внесите свою лепту в развитие PiratBit!
    Комментировать посты могут только пользователи прошедшие не сложную регистрацию
    Показать сообщения:    

    Сильнее судьбы через торрент
    Скачать бесплатно Сильнее судьбы
    Сильнее судьбы скачать торрент
    Сильнее судьбы смотреть онлайн
    Cкачать фильм Сильнее судьбы бесплатно
    Сильнее судьбы скачать торрент в хорошем качестве
    Сильнее судьбы смотреть онлайн бесплатно в хорошем качестве


    Вы не можете начинать темы
    Вы не можете отвечать на сообщения
    Вы не можете редактировать свои сообщения
    Вы не можете удалять свои сообщения
    Вы не можете голосовать в опросах
    Вы не можете прикреплять файлы к сообщениям
    Вы можете скачивать файлы