MEGA NEWS Получи личный уникальный адрес сайта и защити себя от блокировок. Внимание количество ограничено!!!

iTunes

1+1

iTunes

мы

iTunes

1

iTunes

Чернобыль

iTunes

Ральф против интернета

Лицензия

ПШазам

Лицензия

Игра престолов

Лицензия

30
pack

ВАЖНО

!!Акция!!

Alien_RageХит недели

RePack

Resident Evil 21

ИГРА 18+

pack

RePack

Metro:Exodus

!!Акция!!

Alien_Rage

RePack

fifa19

RePack

Assassins Creed: Odyssey

RePack

NEED FOR SPEED™ PAYBACK

3 сезон

9 сезон

Бесстыжие 9 сезон

Все сериалы

все сериалы на PB.wtf

RePack

FAR CRY 5
Ребята, катастрофически не хватает 1900р. для оплаты серверов за АВГУСТ (всвязи с блокировками трафик упал в 3 раза), 1-2р., выручайте.
  

Токсичный мститель / The Toxic Avenger (Майкл Херц , Ллойд Кауфман ) [1984, ужасы, фантастика, боевик, DVDRip, Любительский (одноголосый)] pb.wtf

Токсичный мститель через торрент pb.wtf

Размер: 1.57 GB | Добавлен: 3 года 1 мес. назад | Торрент скачан:46 раз
Скачать  

12-09-2016 18:12 Токсичный мститель Скачать торрент  

Токсичный мститель / The Toxic Avenger

Год выпуска: 1984
Страна: США
Жанр: ужасы, фантастика, боевик, комедия
Продолжительность: 01:23:03
Перевод: Любительский (одноголосый) [Михаил Яроцкий (kyberpunk)]
Режиссер: Майкл Херц , Ллойд Кауфман
В ролях: Андри Маранда (Sara), Митч Коэн (The Toxic Avenger), Дженнифер Бабтист (Wanda), Синди Мэнион (Julie), Роберт Причард (Slug), Гари Шнайдер (Bozo), Пэт Райан (Mayor Peter Belgoody), Марк Торгл (Melvin Junko), Дик Мартинсен (Officer O'Clancy), Крис Лиано (Walter Harris), David Weiss (Chief of Police), Дэн Сноу (Cigar Face)
Описание:
По местному оздоровительному клубу слоняется Мелвин Джанко, слабак, неудачник, объект издевательств и насмешек. Он так достал своим уродским видом Слага и Бозо, что те вышвырнули его в окно. Джанко падает в лохань с токсичными отходами.
Рейтинг:

MPAA: R - Лицам до 17 лет обязательно присутствие взрослого
Качество: DVDRip
Формат: AVI
Видео: XviD, 704x528 (4:3), 2319 kbps, 23,976 fps, 0,260 bpp
Аудио: AC3 / 2.0 / 48 kHz / 384 kbps /

Код:

General
Complete name                            : D:\торренты\The.Toxic.Avenger.kyberpunk.avi
Format                                   : AVI
Format/Info                              : Audio Video Interleave
File size                                : 1.57 GiB
Duration                                 : 1 h 23 min
Overall bit rate                         : 2 713 kb/s
Writing application                      : VirtualDubMod 1.5.10.2 (build 2540/release)
Writing library                          : VirtualDubMod build 2540/release

Video
ID                                       : 0
Format                                   : MPEG-4 Visual
Format profile                           : Advanced Simple@L5
Format settings, BVOP                    : 1
Format settings, QPel                    : No
Format settings, GMC                     : No warppoints
Format settings, Matrix                  : Default (MPEG)
Codec ID                                 : XVID
Codec ID/Hint                            : XviD
Duration                                 : 1 h 23 min
Bit rate                                 : 2 320 kb/s
Width                                    : 704 pixels
Height                                   : 528 pixels
Display aspect ratio                     : 4:3
Frame rate                               : 23.976 (24000/1001) FPS
Color space                              : YUV
Chroma subsampling                       : 4:2:0
Bit depth                                : 8 bits
Scan type                                : Progressive
Compression mode                         : Lossy
Bits/(Pixel*Frame)                       : 0.260
Stream size                              : 1.35 GiB (86%)
Writing library                          : XviD 1.2.1 (UTC 2008-12-04)

Audio
ID                                       : 1
Format                                   : AC-3
Format/Info                              : Audio Coding 3
Mode extension                           : CM (complete main)
Format settings, Endianness              : Big
Codec ID                                 : 2000
Duration                                 : 1 h 23 min
Bit rate mode                            : Constant
Bit rate                                 : 384 kb/s
Channel(s)                               : 2 channels
Channel positions                        : Front: L R
Sampling rate                            : 48.0 kHz
Frame rate                               : 31.250 FPS (1536 spf)
Compression mode                         : Lossy
Stream size                              : 228 MiB (14%)
Alignment                                : Split accross interleaves
Interleave, duration                     : 42  ms (1.00 video frame)
Interleave, preload duration             : 500  ms

pb.wtf



Скачать Токсичный мститель через торрент http://i84.fastpic.ru/big/2016/0912/ea/b264272028127a47bd0976f384ec64ea.jpg Скачать фильм Токсичный мститель через торрент бесплантно в хорошем качестве Описание: По местному оздоровительному клубу слоняется Мелвин Джанко, слабак, неудачник, объект издевательств и насмешек. Он так достал ... 10 10 4
Торрент: Зарегистрирован [2016-09-12 18:12] · скачан: 46 раз
Статус: √ проверено
Размер: 1.57 GB
Как cкачать? Как скачать Токсичный мститель через торрент | qTorrent

% Раздел Тема Автор DL S | L
Фильмы с авторской озвучкой [ 1.46 GB ] Токсичный мститель 4: Гражданин Токси / Citizen Toxie: The Toxic Avenger IV [2001 DVDRip Авторский ] oldGAMERu Скачать
1 | 0
Фильмы до 2000 г. [ 1.37 GB ] Токсичный мститель 3: Последнее искушение Токси / The Toxic Avenger Part III: The Last Temptation of Toxie [1989 DVDRip Любительский ] oldGAMERu Скачать
1 | 0
Фильмы до 2000 г. [ 1.43 GB ] Токсичный мститель 2 / The Toxic Avenger Part II [1989 DVDRip Любительский ] oldGAMERu Скачать
1 | 0
Фильмы (Blu-ray, BD-Remux, HDDVD) [ 23.26 GB ] Токсичный мститель 2 / The Toxic Avenger Part II [1989 BDRemux 1080p] Russian Mafia Скачать
1 | 0


>> Регистрируемся здесь <<






Отзывы и комментарии о схеме читаем и пишем здесь: ---> Отзывы и комментарии о схеме

Новые благодарочки в телеграм довольных пользователей:
скриншот   скриншот   скриншот   скриншот   скриншот
    Дорогой пользователь! Огромная просьба, поблагодарите релизера, оцените раздачу и оставьте свои комментарий, если Вы скачали Токсичный мститель через торрент бесплатно! Внесите свою лепту в развитие PiratBit!
    Комментировать посты могут только пользователи прошедшие не сложную регистрацию
    Показать сообщения:    

    Токсичный мститель через торрент
    Скачать бесплатно Токсичный мститель
    Токсичный мститель скачать торрент
    Токсичный мститель смотреть онлайн
    Cкачать фильм Токсичный мститель бесплатно
    Токсичный мститель скачать торрент в хорошем качестве
    Токсичный мститель смотреть онлайн бесплатно в хорошем качестве


    Вы не можете начинать темы
    Вы не можете отвечать на сообщения
    Вы не можете редактировать свои сообщения
    Вы не можете удалять свои сообщения
    Вы не можете голосовать в опросах
    Вы не можете прикреплять файлы к сообщениям
    Вы можете скачивать файлы