Мега распродажа FORZA HORIZON 4 ULTIMATE+ВСЕ DLC+ОНЛАЙН всего за 499р. 349 руб. (супер цена). Внимание количество ограничено!!!

iTunes

1+1

iTunes

мы

iTunes

1

1 сезон

Чернобыль

1 сезон

Ральф против интернета

Лицензия

ПШазам

8 сезон

Игра престолов

Лицензия

30
pack

ВАЖНО

!!Акция!!

Alien_RageХит недели

RePack

Resident Evil 21

ИГРА 18+

pack

RePack

Metro:Exodus

!!Акция!!

Alien_Rage

RePack

fifa19

RePack

Assassins Creed: Odyssey

RePack

NEED FOR SPEED™ PAYBACK

3 сезон

9 сезон

Бесстыжие 9 сезон

Все сериалы

все сериалы на PB.wtf

RePack

FAR CRY 5
Ребята, катастрофически не хватает 2730р. для оплаты серверов за ИЮНЬ (всвязи с блокировками трафик упал в 3 раза), 1-2р., выручайте.
  

Токсичный мститель 2 / The Toxic Avenger, Part II (Майкл Херц , Ллойд Кауфман ) [1989, фантастика, комедия, боевик, DVDRip, Любительский (одноголосый)] pb.wtf

Токсичный мститель 2 через торрент pb.wtf

Размер: 1.43 GB | Добавлен: 2 года 10 мес. назад | Торрент скачан:27 раз
Скачать  

13-09-2016 05:05 Токсичный мститель 2 Скачать торрент  

Токсичный мститель 2 / The Toxic Avenger, Part II

Год выпуска: 1989
Страна: США
Жанр: фантастика, комедия, боевик, ужасы, приключения

Продолжительность: 01:43:33
Перевод: Любительский (одноголосый)
Режиссер: Майкл Херц , Ллойд Кауфман
В ролях: Рон Фазио (The Toxic Avenger / Apocalypse Inc. Executive), Джон Альтамура (The Toxic Avenger), Фиби Леджер (Claire), Рик Коллинз (Apocalypse Inc. Chairman), Рикия Ясуока (Big Mac Bunko), Цутому Секине (Announcer), Маяко Кацураги (Masami), Синобурю (Shôchikuyama), Лиза Гайе (Malfaire), Джессика Даблин (Mrs. Junko), Джек Купер (Big Mac Junko), Эрика Шикель (Psychiatrist)
Описание:
Слабак Джанко, который упал в ядерные отходы в предыдущей первой части и превратился в мутанта - супергероя, вновь с Вами. Злодеи из корпорации «Апокалипсис» на свободе, и значит «Ядик» снова при деле. Теперь он сражается с одной японской компанией, собирающейся построить новый склад химических отходов.
Рейтинг:

MPAA: R - Лицам до 17 лет обязательно присутствие взрослого
Качество: DVDRip
Формат: AVI
Видео: XviD, 704x528 (4:3), 1774 kbps, 23,976 fps, 0,199 bpp
Аудио: AC3 / 2.0 / 48 kHz / 192 kbps /

General
Complete name : D:\торренты\Токсичный Мститель 2 (1989. The Toxic Avenger 2).avi
Format : AVI
Format/Info : Audio Video Interleave
File size : 1.43 GiB
Duration : 1 h 43 min
Overall bit rate : 1 976 kb/s
Writing application : VirtualDubMod 1.5.10.2 (build 2540/release)
Writing library : VirtualDubMod build 2540/release

Video
ID : 0
Format : MPEG-4 Visual
Format profile : Advanced Simple@L5
Format settings, BVOP : 1
Format settings, QPel : No
Format settings, GMC : No warppoints
Format settings, Matrix : Default (MPEG)
Codec ID : XVID
Codec ID/Hint : XviD
Duration : 1 h 43 min
Bit rate : 1 775 kb/s
Width : 704 pixels
Height : 528 pixels
Display aspect ratio : 4:3
Frame rate : 23.976 (24000/1001) FPS
Color space : YUV
Chroma subsampling : 4:2:0
Bit depth : 8 bits
Scan type : Progressive
Compression mode : Lossy
Bits/(Pixel*Frame) : 0.199
Stream size : 1.28 GiB (90%)
Writing library : XviD 1.2.1 (UTC 2008-12-04)

Audio
ID : 1
Format : AC-3
Format/Info : Audio Coding 3
Codec ID : 2000
Duration : 1 h 43 min
Bit rate mode : Constant
Bit rate : 192 kb/s
Channel(s) : 2 channels
Sampling rate : 48.0 kHz
Compression mode : Lossy
Stream size : 142 MiB (10%)
Alignment : Split accross interleaves
Interleave, duration : 42 ms (1.00 video frame)
Interleave, preload duration : 500 ms
pb.wtf



Скачать Токсичный мститель 2 через торрент http://i82.fastpic.ru/big/2016/0913/ea/a5bd8de6884ff7d5cc40b27c8323e9ea.jpg Скачать фильм Токсичный мститель 2 через торрент бесплантно в хорошем качестве Описание: Слабак Джанко, который упал в ядерные отходы в предыдущей первой части и превратился в мутанта - супергероя, вновь с Вами. Злодеи ... 10 10 1
Торрент: Зарегистрирован [2016-09-13 05:05] · скачан: 27 раз
Статус: √ проверено
Размер: 1.43 GB
Как cкачать? Как скачать Токсичный мститель 2 через торрент | qTorrent

% Раздел Тема Автор DL S | L
Фильмы (Blu-ray, BD-Remux, HDDVD) [ 23.26 GB ] Токсичный мститель 2 / The Toxic Avenger Part II [1989 BDRemux 1080p] Russian Mafia Скачать
1 | 0


>> Регистрируемся здесь <<






Отзывы и комментарии о схеме читаем и пишем здесь: ---> Отзывы и комментарии о схеме

Новые благодарочки в телеграм довольных пользователей:
скриншот   скриншот   скриншот   скриншот   скриншот
    Дорогой пользователь! Огромная просьба, поблагодарите релизера, оцените раздачу и оставьте свои комментарий, если Вы скачали Токсичный мститель 2 через торрент бесплатно! Внесите свою лепту в развитие PiratBit!
    Комментировать посты могут только пользователи прошедшие не сложную регистрацию
    Показать сообщения:    

    Токсичный мститель 2 через торрент
    Скачать бесплатно Токсичный мститель 2
    Токсичный мститель 2 скачать торрент
    Токсичный мститель 2 смотреть онлайн
    Cкачать фильм Токсичный мститель 2 бесплатно
    Токсичный мститель 2 скачать торрент в хорошем качестве
    Токсичный мститель 2 смотреть онлайн бесплатно в хорошем качестве


    Вы не можете начинать темы
    Вы не можете отвечать на сообщения
    Вы не можете редактировать свои сообщения
    Вы не можете удалять свои сообщения
    Вы не можете голосовать в опросах
    Вы не можете прикреплять файлы к сообщениям
    Вы можете скачивать файлы