Ссылка на приватное зеркало нашего сайта всего за 1$. Внимание количество ограничено!!!

2 сезон

iTunes

1 сезон

1

2 сезон

2 сезон

iTunes

1 сезон

RePack

30

Ultimate

ВАЖНО

ИГРА 18+

pack

RePack

MK11
pack

Забери бонус

RePack

jed

!!Акция!!

Alien_Rage

RePack

fifa19

RePack

Assassins Creed: Odyssey

RePack

NEED FOR SPEED™ PAYBACK

4 сезон

9 сезон

Бесстыжие 9 сезон

Все сериалы

все сериалы на PB.wtf

RePack

FAR CRY 5
  

Спящий голос / La voz dormida (Бенито Самбрано) [2011, драма, военный, BDRip 1080p by msltel] VO pb.wtf

Спящий голос через торрент pb.wtf

Размер: 14.87 GB | Добавлен: 4 года 2 мес. назад | Торрент скачан:6 раз
Скачать  

13-09-2016 05:07 Спящий голос Скачать торрент  

Название: Спящий голос
Оригинальное название: La voz dormida
Год выпуска: 2011
Страна: Испания
Жанр: драма, военный
Продолжительность: 02:03:18
Перевод: любительский одноголосый

Режиссёр: Бенито Самбрано

В ролях: Мария Леон, Инма Куэста, Хавьер Годино, Фэни Де Кастро, Ана Вагенер, Марк Клотет, Сьюзи Санчез, Дэнни Холгин, Хавьер Мора, Берта Охеа

Описание: История двух сестёр в смутный период сразу же после завершения гражданской войны в Испании. Младшая из них Пепита, простоватая девушка из окрестностей Кордовы, отправляется в Мадрид, чтобы быть рядом со своей сестрой Гортензией, которая находится в тюрьме и ждёт ребёнка. За участие в движении Сопротивления и связь с его харизматичным лидером Фелипе Гортензия осуждена на смерть, но исполнение приговора отложено до родов. Пепита устраивается горничной в богатом доме и, в тоже время, связывается с прячущимися в горах повстанцами. Там она влюбляется в одного из их лидеров красавца Паулино. Пепита стремится любой ценой оттянуть казнь, тогда как Гортензия со своими сокамерницами пытаются не допустить того, чтобы её родившийся ребёнок был отдан в приют...



Качество: BDRip 1080p Сравнение с исходником
Формат: MKV
Видео: MPEG-4 AVC, 15.4 Mбит/с, 1920x816, 24 кадра/с
Аудио 1: русский, AC3, 384 kbps, 6 ch, 48 kHz [любительский одноголосый, Serg Tex]
Аудио 2: испанский, DTS, 1509 kbps, 6 ch, 48 kHz [оригинал]
Субтитры 1: русские
Субтитры 2: английские
Общее
Уникальный идентификатор : 172072715124120887139268944248374822888 (0x8173FFDD1100F1E7923AEB354C7007E8)
Полное имя : D:\Video\Спящий голос.2011.BDRip.1080p.mkv
Формат : Matroska
Версия формата : Version 4 / Version 2
Размер файла : 14,9 Гбайт
Продолжительность : 2 ч. 3 м.
Общий поток : 17,3 Мбит/сек
Дата кодирования : UTC 2016-09-13 03:13:21
Программа кодирования : mkvmerge v8.2.0 ('World of Adventure') 64bit
Библиотека кодирования : libebml v1.3.1 libmatroska v1.4.2

Видео
Идентификатор : 1
Формат : AVC
Формат/Информация : Advanced Video Codec
Профиль формата : High@L4.1
Параметр CABAC формата : Да
Параметр ReFrames формата : 4 кадра
Идентификатор кодека : V_MPEG4/ISO/AVC
Продолжительность : 2 ч. 3 м.
Битрейт : 15,4 Мбит/сек
Ширина : 1920 пикселей
Высота : 816 пикселей
Соотношение сторон : 2,35:1
Режим частоты кадров : Постоянный
Частота кадров : 24,000 кадра/сек
Цветовое пространство : YUV
Субдискретизация насыщенности : 4:2:0
Битовая глубина : 8 бит
Тип развёртки : Прогрессивная
Бит/(Пиксели*Кадры) : 0.409
Размер потока : 13,2 Гбайт (89%)
Библиотека кодирования : x264 core 146 r2538 121396c
Настройки программы : cabac=1 / ref=4 / deblock=1:-1:-1 / analyse=0x3:0x113 / me=umh / subme=10 / psy=1 / psy_rd=1.00:0.15 / mixed_ref=1 / me_range=32 / chroma_me=1 / trellis=2 / 8x8dct=1 / cqm=0 / deadzone=21,11 / fast_pskip=1 / chroma_qp_offset=-3 / threads=6 / lookahead_threads=1 / sliced_threads=0 / nr=0 / decimate=1 / interlaced=0 / bluray_compat=0 / constrained_intra=0 / bframes=10 / b_pyramid=2 / b_adapt=2 / b_bias=0 / direct=1 / weightb=1 / open_gop=0 / weightp=2 / keyint=230 / keyint_min=23 / scenecut=40 / intra_refresh=0 / rc_lookahead=40 / rc=crf / mbtree=0 / crf=18.2 / qcomp=0.60 / qpmin=0 / qpmax=69 / qpstep=4 / vbv_maxrate=40000 / vbv_bufsize=50000 / crf_max=0.0 / nal_hrd=none / filler=0 / ip_ratio=1.40 / pb_ratio=1.30 / aq=1:1.00
Язык : Spanish
Default : Да
Forced : Нет

Аудио #1
Идентификатор : 2
Формат : AC-3
Формат/Информация : Audio Coding 3
Расширение режима : CM (complete main)
Параметр Endianness формата : Big
Идентификатор кодека : A_AC3
Продолжительность : 2 ч. 3 м.
Вид битрейта : Постоянный
Битрейт : 384 Кбит/сек
Каналы : 6 каналов
Расположение каналов : Front: L C R, Side: L R, LFE
Частота : 48,0 КГц
Частота кадров : 31,250 кадров/сек (1536 spf)
Метод сжатия : С потерями
Размер потока : 339 Мбайт (2%)
Заголовок : любительский одноголосый, Serg Tex
Язык : Russian
Default : Да
Forced : Нет

Аудио #2
Идентификатор : 3
Формат : DTS
Формат/Информация : Digital Theater Systems
Режим : 16
Параметр Endianness формата : Big
Идентификатор кодека : A_DTS
Продолжительность : 2 ч. 3 м.
Вид битрейта : Постоянный
Битрейт : 1509 Кбит/сек
Каналы : 6 каналов
Расположение каналов : Front: L C R, Side: L R, LFE
Частота : 48,0 КГц
Частота кадров : 93,750 кадра/сек (512 spf)
Битовая глубина : 16 бит
Метод сжатия : С потерями
Размер потока : 1,30 Гбайт (9%)
Заголовок : original
Язык : Spanish
Default : Нет
Forced : Нет

Текст #1
Идентификатор : 4
Формат : UTF-8
Идентификатор кодека : S_TEXT/UTF8
Идентификатор кодека/Информация : UTF-8 Plain Text
Продолжительность : 1 ч. 58 м.
Битрейт : 98 бит/сек
Count of elements : 1738
Размер потока : 86,0 Кбайт (0%)
Заголовок : русские
Язык : Russian
Default : Нет
Forced : Нет

Текст #2
Идентификатор : 5
Формат : UTF-8
Идентификатор кодека : S_TEXT/UTF8
Идентификатор кодека/Информация : UTF-8 Plain Text
Продолжительность : 1 ч. 58 м.
Битрейт : 58 бит/сек
Count of elements : 1739
Размер потока : 50,9 Кбайт (0%)
Заголовок : английские
Язык : English
Default : Нет
Forced : Нет
[url=http://radikal.ru/big/t4gi09j СПАМ pb.wtf



Скачать Спящий голос через торрент http://s020.radikal.ru/i710/1609/9c/fa290439798f.jpg Скачать фильм Спящий голос через торрент бесплантно в хорошем качестве Описание: История двух сестёр в смутный период сразу же после завершения гражданской войны в Испании. Младшая из них Пепита, простоватая ... 10 10 4
Info! Золотая раздача, скачанное не засчитывается.
Торрент: Зарегистрирован [2016-09-13 05:07] · скачан: 6 раз
Статус: √ проверено
Размер: 14.87 GB
Как cкачать? Как скачать Спящий голос через торрент | qTorrent

% Раздел Тема Автор DL S | L
Фильмы [HD 720p, 1080p] (Звук Cam, VO, DVO) [ 5.07 GB ] Спящий голос / La voz dormida [2011 военный BDRip 720p by msltel] VO msltel Скачать
1 | 0

28-11-2019 20:33  

Отключить всю рекламу на сайте

    Дорогой пользователь! Огромная просьба, поблагодарите релизера, оцените раздачу и оставьте свои комментарий, если Вы скачали Спящий голос через торрент бесплатно! Внесите свою лепту в развитие PiratBit!
    Комментировать посты могут только пользователи прошедшие не сложную регистрацию
    Показать сообщения:    

    Спящий голос через торрент
    Скачать бесплатно Спящий голос
    Спящий голос скачать торрент
    Спящий голос смотреть онлайн
    Cкачать фильм Спящий голос бесплатно
    Спящий голос скачать торрент в хорошем качестве
    Спящий голос смотреть онлайн бесплатно в хорошем качестве


    Вы не можете начинать темы
    Вы не можете отвечать на сообщения
    Вы не можете редактировать свои сообщения
    Вы не можете удалять свои сообщения
    Вы не можете голосовать в опросах
    Вы не можете прикреплять файлы к сообщениям
    Вы можете скачивать файлы