Ссылка на приватное зеркало нашего сайта всего за 1$. Внимание количество ограничено!!!

2 сезон

iTunes

1 сезон

1

iTunes

iTunes

iTunes

1 сезон

RePack

30

ИГРА 18+

pack

ВАЖНО

!!Акция!!

Alien_RageХит недели

RePack

MK11
pack

Забери бонус

RePack

jed

!!Акция!!

Alien_Rage

RePack

fifa19

RePack

Assassins Creed: Odyssey

RePack

NEED FOR SPEED™ PAYBACK

4 сезон

9 сезон

Бесстыжие 9 сезон

Все сериалы

все сериалы на PB.wtf

RePack

FAR CRY 5
  

Черепашки-ниндзя 2 / Teenage Mutant Ninja Turtles: Out of the Shadows (Дэйв Грин ) [2016, фантастика, боевик, комедия, BDRip 720p от potroks] Dub [Лицензия] pb.wtf

Черепашки-ниндзя 2 через торрент pb.wtf

Раздают: 1 [ 0 KB/s ]
Размер: 7.92 GB | Добавлен: 4 года 1 мес. назад | Торрент скачан:471 раз
Скачать  

13-09-2016 08:53 Черепашки-ниндзя 2 Скачать торрент  

Черепашки-ниндзя 2 / Teenage Mutant Ninja Turtles: Out of the Shadows

Год выпуска: 2016
Страна: США, Гонконг, Китай, Канада
Жанр: фантастика, боевик, комедия, приключения
Продолжительность: 01:52:09
Перевод: Дубляж [Blu-ray CEE]
Субтитры: русские (полные + форс.), английские (Full + SDH)
Навигация по главам: есть
Режиссер: Дэйв Грин
В ролях:

Меган Фокс (April O'Neil), Уилл Арнетт (Vernon Fenwick), Лора Линни (Chief Vincent), Стивен Амелл (Casey Jones), Ноэль Фишер (Michelangelo), Джереми Ховард (Donatello), Пит Пложек (Leonardo), Алан Ричсон (Raphael), Тайлер Перри (Baxter Stockman), Брайан Ти (Shredder), Стефен Фаррелли (Rocksteady), Гари Энтони Уильямс (Bebop)
Описание: Долгое время черепашки-ниндзя скрывались от людей в лабиринтах городской канализации. На протяжении нескольких лет учитель Сплинтер обучал их боевым искусствам и прививал им чувство справедливости. В один прекрасный момент им пришлось подняться наверх, чтобы спасти Нью-Йорк от Шредера, предводителя Клана Футов, захватившего Влacть в Нью-Йорке. Вместе с отважным репортером Эйприл и ее оператором Верном, бесстрашные воины смогли одержать победу и очистить любимый город от преступности. Леонардо, Микеланджело, Рафаэль и Донателло нашли свое предназначение в этом мире и стали защитниками своего города. Они навели порядок в Нью-Йорке и с чистой совестью могли отправиться на покой, но однажды им вновь пришлось столкнуться с могущественным врагом, угрожающим их городу.

Качество: BDRip 720p
Формат: MKV
Видео: AVC, 1280x534 (2,40:1), 8870 kbps, 23,976 fps, 0.541 bpp
Аудио №1: AC3 / 5.1 / 48 kHz / 640 kbps / 16 bit | RUS
Аудио №2: AC3 / 5.1 / 48 kHz / 640 kbps / 16 bit | ENG
Общее
Уникальный идентификатор : 173173582007347103445725577946151124975 (0x824804CA9A57595390717415D765FFEF)
Полное имя : Cherepashki.Nindzya.2.2016.DUAL.BDRip.720p.-HELLYWOOD.mkv
Формат : Matroska
Версия формата : Version 4 / Version 2
Размер файла : 7,92 Гбайт
Продолжительность : 1 ч. 52 м.
Общий поток : 10,1 Мбит/сек
Название фильма : Teenage Mutant Ninja Turtles: Out of the Shadows (2016)
Дата кодирования : UTC 2016-09-13 07:31:12
Программа кодирования : mkvmerge v5.9.0 ('On The Loose') built on Dec 15 2012 16:39:58
Библиотека кодирования : libebml v1.3.0 + libmatroska v1.4.0

Видео
Идентификатор : 1
Формат : AVC
Формат/Информация : Advanced Video Codec
Профиль формата : High@L4.1
Параметр CABAC формата : Да
Параметр ReFrames формата : 9 кадров
Идентификатор кодека : V_MPEG4/ISO/AVC
Продолжительность : 1 ч. 52 м.
Битрейт : 8870 Кбит/сек
Ширина : 1280 пикселей
Высота : 534 пикселя
Соотношение сторон : 2,40:1
Режим частоты кадров : Постоянный
Частота кадров : 23,976 кадра/сек
Цветовое пространство : YUV
Субдискретизация насыщенности : 4:2:0
Битовая глубина : 8 бит
Тип развёртки : Прогрессивная
Бит/(Пиксели*Кадры) : 0.541
Размер потока : 6,76 Гбайт (85%)
Заголовок : potroks
Библиотека кодирования : x264 core 146 r2538 121396c
Настройки программы : cabac=1 / ref=9 / deblock=1:-2:-2 / analyse=0x3:0x113 / me=umh / subme=11 / psy=1 / psy_rd=1.05:0.10 / mixed_ref=1 / me_range=48 / chroma_me=1 / trellis=2 / 8x8dct=1 / cqm=0 / deadzone=21,11 / fast_pskip=0 / chroma_qp_offset=-3 / threads=9 / lookahead_threads=2 / sliced_threads=0 / nr=0 / decimate=0 / interlaced=0 / bluray_compat=0 / constrained_intra=0 / bframes=11 / b_pyramid=2 / b_adapt=2 / b_bias=0 / direct=3 / weightb=1 / open_gop=0 / weightp=2 / keyint=240 / keyint_min=23 / scenecut=40 / intra_refresh=0 / rc_lookahead=60 / rc=2pass / mbtree=0 / bitrate=8870 / ratetol=1.0 / qcomp=0.70 / qpmin=0 / qpmax=69 / qpstep=4 / cplxblur=20.0 / qblur=0.5 / vbv_maxrate=14000 / vbv_bufsize=14000 / nal_hrd=none / filler=0 / ip_ratio=1.40 / pb_ratio=1.30 / aq=1:0.80
Язык : English
Default : Да
Forced : Нет

Аудио #1
Идентификатор : 2
Формат : AC-3
Формат/Информация : Audio Coding 3
Расширение режима : CM (complete main)
Параметр Endianness формата : Big
Идентификатор кодека : A_AC3
Продолжительность : 1 ч. 52 м.
Вид битрейта : Постоянный
Битрейт : 640 Кбит/сек
Каналы : 6 каналов
Расположение каналов : Front: L C R, Side: L R, LFE
Частота : 48,0 КГц
Частота кадров : 31,250 кадров/сек (1536 spf)
Метод сжатия : С потерями
Размер потока : 513 Мбайт (6%)
Заголовок : Dub | DD 5.1 @ 640 kbps - Blu-ray CEE
Язык : Russian
Default : Да
Forced : Нет

Аудио #2
Идентификатор : 3
Формат : AC-3
Формат/Информация : Audio Coding 3
Расширение режима : CM (complete main)
Параметр Endianness формата : Big
Идентификатор кодека : A_AC3
Продолжительность : 1 ч. 52 м.
Вид битрейта : Постоянный
Битрейт : 640 Кбит/сек
Каналы : 6 каналов
Расположение каналов : Front: L C R, Side: L R, LFE
Частота : 48,0 КГц
Частота кадров : 31,250 кадров/сек (1536 spf)
Метод сжатия : С потерями
Размер потока : 513 Мбайт (6%)
Заголовок : Original | DD 5.1 @ 640 kbps
Язык : English
Default : Нет
Forced : Нет

Текст #1
Идентификатор : 4
Формат : UTF-8
Идентификатор кодека : S_TEXT/UTF8
Идентификатор кодека/Информация : UTF-8 Plain Text
Заголовок : Forced
Язык : Russian
Default : Да
Forced : Нет

Текст #2
Идентификатор : 5
Формат : UTF-8
Идентификатор кодека : S_TEXT/UTF8
Идентификатор кодека/Информация : UTF-8 Plain Text
Заголовок : iTunes
Язык : Russian
Default : Нет
Forced : Нет

Текст #3
Идентификатор : 6
Формат : UTF-8
Идентификатор кодека : S_TEXT/UTF8
Идентификатор кодека/Информация : UTF-8 Plain Text
Заголовок : Full
Язык : English
Default : Нет
Forced : Нет

Текст #4
Идентификатор : 7
Формат : UTF-8
Идентификатор кодека : S_TEXT/UTF8
Идентификатор кодека/Информация : UTF-8 Plain Text
Заголовок : SDH
Язык : English
Default : Нет
Forced : Нет

Меню
00:00:00.000 : en:(01)00:00:00:000
00:05:55.562 : en:(02)00:05:55:562
00:12:18.571 : en:(03)00:12:18:571
00:18:53.507 : en:(04)00:18:53:507
00:26:38.096 : en:(05)00:26:38:096
00:33:14.491 : en:(06)00:33:14:491
00:38:56.458 : en:(07)00:38:56:458
00:44:11.190 : en:(08)00:44:11:190
00:49:40.309 : en:(09)00:49:40:309
00:55:40.628 : en:(10)00:55:40:628
01:02:01.259 : en:(11)01:02:01:259
01:04:51.971 : en:(12)01:04:51:971
01:14:32.759 : en:(13)01:14:32:759
01:21:18.414 : en:(14)01:21:18:414
01:28:10.158 : en:(15)01:28:10:158
01:36:58.229 : en:(16)01:36:58:229
01:41:52.021 : en:(17)01:41:52:021
01:46:20.873 : en:(18)01:46:20:873
01:52:07.345 : en:(19)01:52:07:345
pb.wtf



Скачать Черепашки-ниндзя 2 через торрент http://i83.fastpic.ru/big/2016/0912/0b/2a53c74d141b76fad48cfe1332df360b.png Скачать фильм Черепашки-ниндзя 2 через торрент бесплантно в хорошем качестве Описание: Долгое время черепашки-ниндзя скрывались от людей в лабиринтах городской канализации. На протяжении нескольких лет учитель ... 10 10 5
Info! Золотая раздача, скачанное не засчитывается.
Торрент: Зарегистрирован [2016-09-13 08:53] · скачан: 471 раз
Статус: √ проверено
Размер: 7.92 GB
Как cкачать? Как скачать Черепашки-ниндзя 2 через торрент | qTorrent

% Раздел Тема Автор DL S | L
Фильмы [HD 720p, 1080p] (Хороший звук DUB, MVO) [ 7.37 GB ] Черепашки-ниндзя 2 / Teenage Mutant Ninja Turtles: Out of the Shadows [2016 BDRip-HEVC 1080p] DUB [] bober100 Скачать
1 | 0
Ultra HD (UHD: 2K, 4K, 8K) — видео сверхвысокой чёткости [ 59.98 GB ] Черепашки-ниндзя 2 / Teenage Mutant Ninja Turtles: Out of the Shadows [2016 UHD BDRemux 2160p] 2xAVO+DUB [] bober100 Скачать
1 | 0
Ultra HD (UHD: 2K, 4K, 8K) — видео сверхвысокой чёткости [ 64.44 GB ] Черепашки-ниндзя 2 / Teenage Mutant Ninja Turtles: Out of the Shadows [2016 UHD Blu-ray 2160p] 2xAVO+DUB [] bober100 Скачать
1 | 0
3D Фильмы [ 16.29 GB ] Черепашки-ниндзя 2 в 3D / Teenage Mutant Ninja Turtles: Out of the Shadows 3D [2016 3D BDRip 1080p] / Half OverUnder sheker187 Скачать
2 | 0
Ultra HD (UHD: 2K, 4K, 8K) — видео сверхвысокой чёткости [ 51.76 GB ] Черепашки-ниндзя 2 / Teenage Mutant Ninja Turtles: Out of the Shadows [2016 UHDWEBRip 2160p] - [] sheker187 Скачать
1 | 0
Фильмы (HD 720p, 1080p) (48-60 fps) [ 6.1 GB ] Черепашки-ниндзя 2 / Teenage Mutant Ninja Turtles: Out of the Shadows [2016 BDRip 720p 60 fps от еnvy / NNNB] DUB еnvy Скачать
7 | 0
T Релизы по Парсеру [Игры, Сериалы и Фильмы и другое...] [ 746 MB ] Черепашки-ниндзя 2 / Teenage Mutant Ninja Turtles: Out of the Shadows WEB-DLRip от MegaPeer / Ворон Скачать
1 | 0

28-11-2019 20:33  

Отключить всю рекламу на сайте

20-09-2016 12:16 Черепашки-ниндзя 2 Скачать торрент  

Норм часть)pb.wtf



    Дорогой пользователь! Огромная просьба, поблагодарите релизера, оцените раздачу и оставьте свои комментарий, если Вы скачали Черепашки-ниндзя 2 через торрент бесплатно! Внесите свою лепту в развитие PiratBit!
    Комментировать посты могут только пользователи прошедшие не сложную регистрацию
    Показать сообщения:    

    Черепашки-ниндзя 2 через торрент
    Скачать бесплатно Черепашки-ниндзя 2
    Черепашки-ниндзя 2 скачать торрент
    Черепашки-ниндзя 2 смотреть онлайн
    Cкачать фильм Черепашки-ниндзя 2 бесплатно
    Черепашки-ниндзя 2 скачать торрент в хорошем качестве
    Черепашки-ниндзя 2 смотреть онлайн бесплатно в хорошем качестве


    Вы не можете начинать темы
    Вы не можете отвечать на сообщения
    Вы не можете редактировать свои сообщения
    Вы не можете удалять свои сообщения
    Вы не можете голосовать в опросах
    Вы не можете прикреплять файлы к сообщениям
    Вы можете скачивать файлы