Ссылка на приватное зеркало всего за 1$. Внимание количество ограничено!!!

iTunes

iTunes

iTunes

1

iTunes

iTunes

iTunes

iTunes

iTunes

30
pack

Новость дня

ВАЖНО

!!Акция!!

Alien_RageХит недели

RePack

Resident Evil 21

ИГРА 18+

pack

RePack

jed

!!Акция!!

Alien_Rage

RePack

fifa19

RePack

Assassins Creed: Odyssey

RePack

NEED FOR SPEED™ PAYBACK

4 сезон

9 сезон

Бесстыжие 9 сезон

Все сериалы

все сериалы на PB.wtf

RePack

FAR CRY 5
  

Бармен (Дина Штурманова ) [2015, комедия, фэнтези, DVDRip] pb.wtf

Бармен через торрент pb.wtf

Раздают: 1 [ 0 KB/s ]
Размер: 1.46 GB | Добавлен: 3 года 8 мес. назад | Торрент скачан:215 раз
Скачать  

13-09-2016 09:46 Бармен Скачать торрент  

Бармен

Год выпуска: 2015
Страна: Россия
Жанр: комедия, фэнтези
Продолжительность: 01:28:16
Перевод: Оригинал лицензия
Режиссер: Дина Штурманова
В ролях: Виталий Гогунский (Вадик), Иван Охлобыстин (бармен), Юлия Паршута (Юлия), Юрий Стоянов (папа Юлии), Жанна Эппле (мама Юлии), Константин Крюков (Артур), Антон Богданов (Рома), Ольга Бузова (Вика), Евгения Ярушникова (Лера), Константин Федоров (Кабан), Константин Соколов (Валера), Евгений Кравченко (Бум)
Описание:
Вадик мечтает изменить свою скучную жизнь, но страх неудачи и неуверенность в себе мешают парню двигаться к цели. Все меняется, когда Вадик случайно забредает в пустой бар и выпивает коктейль по рецепту загадочного Бармена. Отныне он - мистер Харизма, и весь мир лежит у его ног. Даже красавица Юля, о которой раньше он не смел и мечтать, обратила на него внимание. Новый коктейль - новый талант: сегодня Вадик - интеллектуал, завтра - король танцпола... Вот только действуют волшебные напитки недолго и имеют не очень приятный побочный эффект...
Рейтинг:

Качество: DVDRip
Формат: AVI
Видео: XviD, 720x304 (2.35:1), 1909 kbps, 25 fps, 0,349 bpp
Аудио: AC3 / 5.1 / 48 kHz / 448 kbps /

General
Complete name Barmen.2015.O.DVDRip.avi
Format : AVI
Format/Info : Audio Video Interleave
File size : 1.46 GiB
Duration : 1 h 28 min
Overall bit rate : 2 367 kb/s
Writing library : VirtualDub build 35491/release

Video
ID : 0
Format : MPEG-4 Visual
Format profile : Advanced Simple@L5
Format settings, BVOP : 2
Format settings, QPel : No
Format settings, GMC : No warppoints
Format settings, Matrix : Default (MPEG)
Muxing mode : Packed bitstream
Codec ID : XVID
Codec ID/Hint : XviD
Duration : 1 h 28 min
Bit rate : 1 910 kb/s
Width : 720 pixels
Height : 304 pixels
Display aspect ratio : 2.35:1
Frame rate : 25.000 FPS
Color space : YUV
Chroma subsampling : 4:2:0
Bit depth : 8 bits
Scan type : Progressive
Compression mode : Lossy
Bits/(Pixel*Frame) : 0.349
Stream size : 1.18 GiB (81%)
Writing library : XviD 73

Audio
ID : 1
Format : AC-3
Format/Info : Audio Coding 3
Mode extension : CM (complete main)
Format settings, Endianness : Big
Codec ID : 2000
Duration : 1 h 28 min
Bit rate mode : Constant
Bit rate : 448 kb/s
Channel(s) : 6 channels
Channel positions : Front: L C R, Side: L R, LFE
Sampling rate : 48.0 kHz
Frame rate : 31.250 FPS (1536 spf)
Compression mode : Lossy
Stream size : 283 MiB (19%)
Alignment : Aligned on interleaves
Interleave, duration : 40 ms (1.00 video frame)
Interleave, preload duration : 512 ms
Скриншоты:
pb.wtf



Скачать Бармен через торрент http://i1.imageban.ru/out/2016/09/13/42ce5b246c8c227371e2683f0c5a0fc1.jpg Скачать фильм Бармен через торрент бесплантно в хорошем качестве Описание: Вадик мечтает изменить свою скучную жизнь, но страх неудачи и неуверенность в себе мешают парню двигаться к цели. Все меняется, ... 10 10 11
Торрент: Зарегистрирован [2016-09-13 09:46] · скачан: 215 раз
Статус: √ проверено
Размер: 1.46 GB
Как cкачать? Как скачать Бармен через торрент | qTorrent

% Раздел Тема Автор DL S | L
Наши фильмы (DVD фильмы) [ 5.83 GB ] Бармен [2015 DVD9] R5 voovaz Скачать
1 | 0
Наши новые фильмы 2015 [ 1.37 GB ] Бармен [2015 WEB-DLRip ] Ворон Скачать
1 | 0
Наши фильмы (HD, WEB-DL 720p, 1080p) [ 2.87 GB ] Бармен [2015 WEB-DL 720p ] Ворон Скачать
1 | 0
Наши фильмы (HD, WEB-DL 720p, 1080p) [ 3.13 GB ] Бармен [2015 WEB-DL 1080p ] Newton5 Скачать
1 | 0
Наши новые фильмы 2015 [ 1.71 GB ] Бармен [2015 WEB-DLRip-AVC от ExKinoRay / Russia] Ворон Скачать
1 | 0
Домашнее порно [ 276 MB ] Бармен я тебя хочу. [2014 Amateur Big Boobs Reality Classic Hidden Camera/ CamRip] Pir@tya2010 Скачать
1 | 0
Порно фильмы без сюжета [ 1017 MB ] Ебyт Мою Жену Барменшу / Fuck My Wife I'll Do The Barmaid [2013 All Sex Foreign Cuckold Anal DP DVDRip Оригинал] 19alexei87 Скачать
1 | 0

28-11-2019 20:33  

Отключить всю рекламу на сайте

    Дорогой пользователь! Огромная просьба, поблагодарите релизера, оцените раздачу и оставьте свои комментарий, если Вы скачали Бармен через торрент бесплатно! Внесите свою лепту в развитие PiratBit!
    Комментировать посты могут только пользователи прошедшие не сложную регистрацию
    Показать сообщения:    

    Бармен через торрент
    Скачать бесплатно Бармен
    Бармен скачать торрент
    Бармен смотреть онлайн
    Cкачать фильм Бармен бесплатно
    Бармен скачать торрент в хорошем качестве
    Бармен смотреть онлайн бесплатно в хорошем качестве


    Вы не можете начинать темы
    Вы не можете отвечать на сообщения
    Вы не можете редактировать свои сообщения
    Вы не можете удалять свои сообщения
    Вы не можете голосовать в опросах
    Вы не можете прикреплять файлы к сообщениям
    Вы можете скачивать файлы