Ссылка на приватное зеркало нашего сайта всего за 1$. Внимание количество ограничено!!!

2 сезон

iTunes

1 сезон

1

2 сезон

2 сезон

iTunes

1 сезон

RePack

30

Ultimate

ВАЖНО

ИГРА 18+

pack

RePack

MK11
pack

Забери бонус

RePack

jed

!!Акция!!

Alien_Rage

RePack

fifa19

RePack

Assassins Creed: Odyssey

RePack

NEED FOR SPEED™ PAYBACK

4 сезон

9 сезон

Бесстыжие 9 сезон

Все сериалы

все сериалы на PB.wtf

RePack

FAR CRY 5
  

Дирижёр (Павел Лунгин) [2012, драма, BDRip 1080p by msltel] pb.wtf

Дирижёр через торрент pb.wtf

Размер: 9.59 GB | Добавлен: 4 года 2 мес. назад | Торрент скачан:1 раз
Скачать  

14-09-2016 06:44 Дирижёр Скачать торрент  

Оригинальное название: Дирижёр
Год выпуска: 2012
Страна: Россия
Жанр: драма
Продолжительность: 01:30:12
Язык: русский

Режиссёр: Павел Лунгин

В ролях: Владас Багдонас, Карэн Бадалов, Дарья Мороз, Сергей Колтаков, Инга Оболдина, Андрей Сиротин, Сергей Барковский

Описание: Дирижёр отправляется со своим оркестром в Иерусалим, чтобы исполнить ораторию «Страсти по Матфею». Но гастроли оборачиваются трагедией. Черное солнце Иерусалима срывает с главного героя маску благополучного художника, заставляет увидеть себя в беспощадной наготе эгоизма и жестокости. Иногда за три дня человек может полностью переоценить и переосмыслить свою жизнь. Меняться никогда не поздно...



Качество: BDRip 1080p Сравнение с исходником
Формат: MKV
Видео: MPEG-4 AVC, 13.7 Mбит/с, 1920x816, 24 кадра/с
Аудио: русский, DTS, 1509 kbps, 6 ch, 48 kHz [оригинал]
Субтитры: русские
Общее
Уникальный идентификатор : 193454908826535137783022101972734566171 (0x918A0F67F10B749DB91D96C8AF29DF1B)
Полное имя : D:\Video\Дирижёр.2012.BDRip.1080p.mkv
Формат : Matroska
Версия формата : Version 4 / Version 2
Размер файла : 9,59 Гбайт
Продолжительность : 1 ч. 30 м.
Общий поток : 15,2 Мбит/сек
Дата кодирования : UTC 2016-09-14 03:27:49
Программа кодирования : mkvmerge v8.2.0 ('World of Adventure') 64bit
Библиотека кодирования : libebml v1.3.1 + libmatroska v1.4.2

Видео
Идентификатор : 1
Формат : AVC
Формат/Информация : Advanced Video Codec
Профиль формата : High@L4.1
Параметр CABAC формата : Да
Параметр ReFrames формата : 4 кадра
Идентификатор кодека : V_MPEG4/ISO/AVC
Продолжительность : 1 ч. 30 м.
Битрейт : 13,7 Мбит/сек
Ширина : 1920 пикселей
Высота : 816 пикселей
Соотношение сторон : 2,35:1
Режим частоты кадров : Постоянный
Частота кадров : 24,000 кадра/сек
Цветовое пространство : YUV
Субдискретизация насыщенности : 4:2:0
Битовая глубина : 8 бит
Тип развёртки : Прогрессивная
Бит/(Пиксели*Кадры) : 0.364
Размер потока : 8,63 Гбайт (90%)
Библиотека кодирования : x264 core 146 r2538 121396c
Настройки программы : cabac=1 / ref=4 / deblock=1:-1:-1 / analyse=0x3:0x113 / me=umh / subme=10 / psy=1 / psy_rd=1.00:0.15 / mixed_ref=1 / me_range=32 / chroma_me=1 / trellis=2 / 8x8dct=1 / cqm=0 / deadzone=21,11 / fast_pskip=1 / chroma_qp_offset=-3 / threads=6 / lookahead_threads=1 / sliced_threads=0 / nr=0 / decimate=1 / interlaced=0 / bluray_compat=0 / constrained_intra=0 / bframes=9 / b_pyramid=2 / b_adapt=2 / b_bias=0 / direct=1 / weightb=1 / open_gop=0 / weightp=2 / keyint=230 / keyint_min=23 / scenecut=40 / intra_refresh=0 / rc_lookahead=40 / rc=crf / mbtree=0 / crf=17.6 / qcomp=0.60 / qpmin=0 / qpmax=69 / qpstep=4 / vbv_maxrate=40000 / vbv_bufsize=50000 / crf_max=0.0 / nal_hrd=none / filler=0 / ip_ratio=1.40 / pb_ratio=1.30 / aq=1:1.00
Язык : Russian
Default : Да
Forced : Нет

Аудио
Идентификатор : 2
Формат : DTS
Формат/Информация : Digital Theater Systems
Режим : 16
Параметр Endianness формата : Big
Идентификатор кодека : A_DTS
Продолжительность : 1 ч. 30 м.
Вид битрейта : Постоянный
Битрейт : 1509 Кбит/сек
Каналы : 6 каналов
Расположение каналов : Front: L C R, Side: L R, LFE
Частота : 48,0 КГц
Частота кадров : 93,750 кадра/сек (512 spf)
Битовая глубина : 16 бит
Метод сжатия : С потерями
Размер потока : 974 Мбайт (10%)
Заголовок : русский
Язык : Russian
Default : Да
Forced : Нет

Текст
Идентификатор : 3
Формат : UTF-8
Идентификатор кодека : S_TEXT/UTF8
Идентификатор кодека/Информация : UTF-8 Plain Text
Продолжительность : 1 ч. 14 м.
Битрейт : 43 бит/сек
Count of elements : 492
Размер потока : 23,5 Кбайт (0%)
Заголовок : русские
Язык : Russian
Default : Нет
Forced : Нет
pb.wtf



Скачать Дирижёр через торрент http://s017.radikal.ru/i420/1609/d6/c5455b6bd106.jpg Скачать фильм Дирижёр через торрент бесплантно в хорошем качестве Описание: Дирижёр отправляется со своим оркестром в Иерусалим, чтобы исполнить ораторию «Страсти по Матфею». Но гастроли оборачиваются ... 5 10 1
Info! Золотая раздача, скачанное не засчитывается.
Торрент: Зарегистрирован [2016-09-14 06:44] · скачан: 1 раз
Статус: √ проверено
Размер: 9.59 GB
Как cкачать? Как скачать Дирижёр через торрент | qTorrent

% Раздел Тема Автор DL S | L
Наши фильмы (Blu-ray, BD-Remux, HDDVD) [ 23.05 GB ] Дирижёр [2012 Blu-Ray 1080p] Russian Mafia Скачать
1 | 0
Наши новые фильмы 2012 [ 3.08 GB ] Дирижёр [2012 BDRip 720p by msltel] msltel Скачать
1 | 0
Наши новые фильмы 2012 [ 1.37 GB ] Дирижёр [2011 HDRip Оригинал ] ~Relizer~ Скачать
1 | 0
Наши фильмы (DVD фильмы) [ 7.19 GB ] Дирижёр [2012 DVD9] R5 voovaz Скачать
1 | 0
Наши новые фильмы 2012 [ 1.24 GB ] Дирижёр [2012 SATRip] VintMosina Скачать
1 | 0

28-11-2019 20:33  

Отключить всю рекламу на сайте

    Дорогой пользователь! Огромная просьба, поблагодарите релизера, оцените раздачу и оставьте свои комментарий, если Вы скачали Дирижёр через торрент бесплатно! Внесите свою лепту в развитие PiratBit!
    Комментировать посты могут только пользователи прошедшие не сложную регистрацию
    Показать сообщения:    

    Дирижёр через торрент
    Скачать бесплатно Дирижёр
    Дирижёр скачать торрент
    Дирижёр смотреть онлайн
    Cкачать фильм Дирижёр бесплатно
    Дирижёр скачать торрент в хорошем качестве
    Дирижёр смотреть онлайн бесплатно в хорошем качестве


    Вы не можете начинать темы
    Вы не можете отвечать на сообщения
    Вы не можете редактировать свои сообщения
    Вы не можете удалять свои сообщения
    Вы не можете голосовать в опросах
    Вы не можете прикреплять файлы к сообщениям
    Вы можете скачивать файлы