Ссылка на приватное зеркало нашего сайта всего за 1$. Внимание количество ограничено!!!

2 сезон

iTunes

1 сезон

1

iTunes

iTunes

iTunes

1 сезон

RePack

30

ИГРА 18+

pack

ВАЖНО

!!Акция!!

Alien_RageХит недели

RePack

MK11
pack

Забери бонус

RePack

jed

!!Акция!!

Alien_Rage

RePack

fifa19

RePack

Assassins Creed: Odyssey

RePack

NEED FOR SPEED™ PAYBACK

4 сезон

9 сезон

Бесстыжие 9 сезон

Все сериалы

все сериалы на PB.wtf

RePack

FAR CRY 5
  

Человек, которого не было / The Man Who Wasn't There (Джоэл Коэн / Joel Coen, Итан Коэн / Ethan Coen) [2001, драма, криминал, BDRip 720p от _denis_100 / NNNB] MVO + 2xAVO + Original + Sub (Rus,Eng) pb.wtf

Человек, которого не было через торрент pb.wtf

Размер: 5.76 GB | Добавлен: 4 года 1 мес. назад | Торрент скачан:106 раз
Скачать  

14-09-2016 14:33 Человек, которого не было Скачать торрент  

Человек, которого не было / The Man Who Wasn't There
«The last thing on his mind is murder»


Год выпуска: 2001
Страна: США, Великобритания
Жанр: драма, криминал
Продолжительность: 01:56:05
Перевод: Профессиональный многоголосый, Авторский одноголосый
Субтитры: русские, английские
Режиссер: Джоэл Коэн , Итан Коэн
В ролях: Билли Боб Торнтон , Джеймс Гандольфини , Скарлетт Йоханссон , Майкл Бадалукко , Кэтрин Боровиц , Джон Полито , Фрэнсис МакДорманд, Ричард Дженкинс , Тони Шэлуб , Кристофер Криса , Брайан Хейли , Джек МакГи
Описание:
1949 год, Санта-Роза, Калифорния. Молчаливый парикмахер Эд Крэйн неторопливо стрижет клиентов в своем салоне, в то время как его жена крутит шашни со своим боссом, галантерейщиком Большим Дэйвом, который недавно скопил деньги на новый магазин.

R - Лицам до 17 лет обязательно присутствие взрослого
Качество: BDRip 720p
Контейнер (Расширение): MKV
Видео: 1280x694, 4989 Кбит/сек, 24 кадр/сек, 0,234 Бит/[Пиксели*Кадры]
Аудио №1: русский / AC3 / 5.1 / 48 kHz / 640 kbps / |Профессиональный многоголосый|
Аудио №2: русский / AC3 / 5.1 / 48 kHz / 640 kbps / |Авторский одноголосый, Гаврилов|
Аудио №3: русский / AC3 / 2.0 / 48 kHz / 192 kbps / |Авторский одноголосый, Сербин|
Аудио №4: английский / AC3 / 5.1 / 48 kHz / 640 kbps /
Навигация по главам(Чаптеры): естьАвтор рипа: Сообщество: Переводы к фильмам отдельно:
Format : Matroska
Format version : Version 2
File size : 5.76 GiB
Duration : 1 h 56 min
Overall bit rate : 7 104 kb/s
Movie name : The Man Who Wasn't There.2001.BDRip.720p.[denis100]
Encoded date : UTC 2016-09-14 14:20:48
Writing application : mkvmerge v5.8.0 ('No Sleep / Pillow') built on Sep 2 2012 15:37:04
Writing library : libebml v1.2.3 + libmatroska v1.3.0

Video
ID : 1
Format : AVC
Format/Info : Advanced Video Codec
Format profile : High@L4.1
Format settings, CABAC : Yes
Format settings, ReFrames : 9 frames
Codec ID : V_MPEG4/ISO/AVC
Duration : 1 h 56 min
Bit rate : 4 989 kb/s
Width : 1 280 pixels
Height : 694 pixels
Display aspect ratio : 1.85:1
Frame rate mode : Constant
Frame rate : 24.000 FPS
Color space : YUV
Chroma subsampling : 4:2:0
Bit depth : 8 bits
Scan type : Progressive
Bits/(Pixel*Frame) : 0.234
Stream size : 3.93 GiB (68%)
Title : The Man Who Wasn't There.2001.BDRip.720p.[denis100]
Writing library : x264 core 148 r2705 3f5ed56
Encoding settings : cabac=1 / ref=9 / deblock=1:-3:-3 / analyse=0x3:0x133 / me=umh / subme=11 / psy=1 / psy_rd=1.00:0.00 / mixed_ref=1 / me_range=32 / chroma_me=1 / trellis=2 / 8x8dct=1 / cqm=0 / deadzone=21,11 / fast_pskip=0 / chroma_qp_offset=-2 / threads=6 / lookahead_threads=1 / sliced_threads=0 / nr=0 / decimate=1 / interlaced=0 / bluray_compat=0 / constrained_intra=0 / bframes=8 / b_pyramid=2 / b_adapt=2 / b_bias=0 / direct=3 / weightb=1 / open_gop=0 / weightp=2 / keyint=250 / keyint_min=24 / scenecut=40 / intra_refresh=0 / rc=2pass / mbtree=0 / bitrate=4989 / ratetol=1.0 / qcomp=0.60 / qpmin=0 / qpmax=69 / qpstep=4 / cplxblur=20.0 / qblur=0.5 / ip_ratio=1.40 / pb_ratio=1.30 / aq=1:1.00
Language : English
Default : Yes
Forced : No

Audio #1
ID : 2
Format : AC-3
Format/Info : Audio Coding 3
Mode extension : CM (complete main)
Format settings, Endianness : Big
Codec ID : A_AC3
Duration : 1 h 56 min
Bit rate mode : Constant
Bit rate : 640 kb/s
Channel(s) : 6 channels
Channel positions : Front: L C R, Side: L R, LFE
Sampling rate : 48.0 kHz
Frame rate : 31.250 FPS (1536 spf)
Compression mode : Lossy
Stream size : 531 MiB (9%)
Title : MVO, R5
Language : Russian
Default : Yes
Forced : No

Audio #2
ID : 3
Format : AC-3
Format/Info : Audio Coding 3
Mode extension : CM (complete main)
Format settings, Endianness : Big
Codec ID : A_AC3
Duration : 1 h 56 min
Bit rate mode : Constant
Bit rate : 640 kb/s
Channel(s) : 6 channels
Channel positions : Front: L C R, Side: L R, LFE
Sampling rate : 48.0 kHz
Frame rate : 31.250 FPS (1536 spf)
Compression mode : Lossy
Stream size : 531 MiB (9%)
Title : AVO, Гаврилов
Language : Russian
Default : No
Forced : No

Audio #3
ID : 4
Format : AC-3
Format/Info : Audio Coding 3
Mode extension : CM (complete main)
Format settings, Endianness : Big
Codec ID : A_AC3
Duration : 1 h 56 min
Bit rate mode : Constant
Bit rate : 192 kb/s
Channel(s) : 2 channels
Channel positions : Front: L R
Sampling rate : 48.0 kHz
Frame rate : 31.250 FPS (1536 spf)
Compression mode : Lossy
Stream size : 159 MiB (3%)
Title : AVO, Сербин
Language : Russian
Default : No
Forced : No

Audio #4
ID : 5
Format : AC-3
Format/Info : Audio Coding 3
Mode extension : CM (complete main)
Format settings, Endianness : Big
Codec ID : A_AC3
Duration : 1 h 56 min
Bit rate mode : Constant
Bit rate : 640 kb/s
Channel(s) : 6 channels
Channel positions : Front: L C R, Side: L R, LFE
Sampling rate : 48.0 kHz
Frame rate : 31.250 FPS (1536 spf)
Compression mode : Lossy
Stream size : 531 MiB (9%)
Language : English
Default : No
Forced : No

Text #1
ID : 6
Format : UTF-8
Codec ID : S_TEXT/UTF8
Codec ID/Info : UTF-8 Plain Text
Language : Russian
Default : No
Forced : No

Text #2
ID : 7
Format : UTF-8
Codec ID : S_TEXT/UTF8
Codec ID/Info : UTF-8 Plain Text
Language : English
Default : No
Forced : No

Menu
00:00:00.000 : en:Chapter 1
00:08:35.416 : en:Chapter 2
00:18:59.166 : en:Chapter 3
00:31:17.541 : en:Chapter 4
00:42:57.000 : en:Chapter 5
00:53:53.250 : en:Chapter 6
01:07:48.250 : en:Chapter 7
01:14:19.041 : en:Chapter 8
01:22:00.791 : en:Chapter 9
01:27:10.541 : en:Chapter 10
01:36:46.000 : en:Chapter 11
01:45:26.000 : en:Chapter 12
x264 [info]: frame I:1074 Avg QP:13.10 size:135358
x264 [info]: frame P:34296 Avg QP:14.88 size: 49549
x264 [info]: frame B:131806 Avg QP:16.88 size: 18963
pb.wtf



Скачать Человек, которого не было через торрент http://i4.imageban.ru/out/2016/09/14/7571bf12dbf911729d9c8f09e7d3fda0.png Скачать фильм Человек, которого не было через торрент бесплантно в хорошем качестве Описание:1949 год, Санта-Роза, Калифорния. Молчаливый парикмахер Эд Крэйн неторопливо стрижет клиентов в своем салоне, в то время как его ... 10 10 2
Info! Золотая раздача, скачанное не засчитывается.
Торрент: Зарегистрирован [2016-09-14 14:33] · скачан: 106 раз
Статус: √ проверено
Размер: 5.76 GB
Как cкачать? Как скачать Человек, которого не было через торрент | qTorrent

28-11-2019 20:33  

Отключить всю рекламу на сайте

    Дорогой пользователь! Огромная просьба, поблагодарите релизера, оцените раздачу и оставьте свои комментарий, если Вы скачали Человек, которого не было через торрент бесплатно! Внесите свою лепту в развитие PiratBit!
    Комментировать посты могут только пользователи прошедшие не сложную регистрацию
    Показать сообщения:    

    Человек, которого не было через торрент
    Скачать бесплатно Человек, которого не было
    Человек, которого не было скачать торрент
    Человек, которого не было смотреть онлайн
    Cкачать фильм Человек, которого не было бесплатно
    Человек, которого не было скачать торрент в хорошем качестве
    Человек, которого не было смотреть онлайн бесплатно в хорошем качестве


    Вы не можете начинать темы
    Вы не можете отвечать на сообщения
    Вы не можете редактировать свои сообщения
    Вы не можете удалять свои сообщения
    Вы не можете голосовать в опросах
    Вы не можете прикреплять файлы к сообщениям
    Вы можете скачивать файлы