2 сезон

iTunes

MVO

1

2 сезон

iTunes

iTunes

1 сезон

RePack

30

Новинка

ВАЖНО

ИГРА 18+

pack

RePack

MK11
pack

Легкие деньги

RePack

jed

RePack

fifa19

RePack

RDR2

RePack

NEED FOR SPEED™ PAYBACK

4 сезон

9 сезон

Бесстыжие 9 сезон

Все сериалы

все сериалы на PB.wtf

RePack

FAR CRY 5

Anonymous, добрый день, мы не успеваем собрать деньги на оплату серверов за декабрь и январь, помогите нам пожалуйста в это трудное время. В качестве благодарности мы отключим Вам всю рекламу на сайте (укажите свой ник в строку Ваше имя)!

×
  
Magnet ссылка

Пришествие: Встреча с пришельцами / The Visit An Alien Encounter (Майкл Мэдсен) [2015 г., документальный, DVB]DVO pb.wtf

Пришествие: Встреча с пришельцами через торрент pb.wtf

Размер: 1021 MB | Добавлен: 4 года 4 мес. назад | Торрент скачан:109 раз
Скачать  

14-09-2016 16:04 Пришествие: Встреча с пришельцами Скачать торрент  

Пришествие: Встреча с пришельцами / The Visit An Alien Encounter
Год выпуска: 2015
Страна: Дания, Австрия, Ирландия, Финляндия, Новегия, Швеция, Нидерланды
Жанр: документальный
Продолжительность: 01:20:26
Перевод: Профессиональный (двухголосый)
Субтитры: отсутствуют

Режиссер: Майкл Мэдсен

В ролях: Пол Бивер, Майкл Бойс, Шерил Бишоп

Описание: Мы не встречались с внеземными цивилизациями, инопланетный корабль не касался поверхности Земли, но в этом псевдодокументальном фильме о событиях, никогда на самом деле не происходивших, ученые и эксперты из НАСА, управления по вопросам космического пространства ООН и других мировых организаций, не склонных к розыгрышам, представляют эти события свершившимися. Какой могла бы быть первая встреча человека с внеземным разумом? Какова была бы реакция правительства и обычных людей? Кому выпала бы честь говорить с пришельцами от имени нашей планеты и что, в первую очередь, мы могли бы рассказать о себе? Главные вопросы, ответы на которые мы хотели бы знать: кто вы, почему вы здесь, знаете ли вы, что такое добро и зло, что делает вас счастливыми? Это путешествие в неизвестность — попытка понять не только внеземной разум, но и само человечество.

Качество: DVB
Формат: MKV
Видео кодек: MPEG2
Аудио кодек: MP2



Видео: 720x576 (4:3), 25 fps, MPEG2 Video, Main@Main, 1547 Кбит/сек, ~ 0.149 bit/pixel
Аудио#1: 48 kHz, MPEG Layer 2, 2 ch, ~192.00 kbps avg
номинация на Гран-при жюри Sundance Film Festival 2015 за лучший документальный фильм в программе "Мировое кино"; номинация на приз "Золотая лягушка" Camerimage 2015 за лучшую работу оператора в документальном кино; номинация на приз "Серебряный Св. Георгий" Московского международного кинофестиваля 2015 за лучший документальный фильм; др. награды.
General
Unique ID : 199675140181754350010207157873044456314 (0x9638087D57B33BA48A72BC650DE5837A)
Complete name : [apreder]The_Visit(2015)DVB.mkv
Format : Matroska
Format version : Version 2
File size : 1 021 MiB
Duration : 1h 20mn
Overall bit rate mode : Variable
Overall bit rate : 1 774 Kbps
Movie name : The Visit: An Alien Encounter by Michael Madsen
Released date : 2015-10-08
Encoded date : UTC 2016-05-08 14:42:20
Writing application : mkvmerge v9.1.0 ('Little Earthquakes') 64bit
Writing library : libebml v1.3.3 + libmatroska v1.4.4
Cover : Yes
Attachments : cover.jpg / cover_small.jpg
DIRECTOR : Michael Madsen
GENRE : Documentary
IMDB : tt3833746
KEYWORDS : rutracker.org
LAW_RATING : 12+

Video
ID : 1
Format : MPEG Video
Format version : Version 2
Format profile : Main@Main
Format settings, BVOP : Yes
Format settings, Matrix : Custom
Format settings, GOP : Variable
Format settings, picture structure : Frame
Codec ID : V_MPEG2
Codec ID/Info : MPEG 1 or 2 Video
Duration : 1h 20mn
Bit rate mode : Variable
Bit rate : 1 547 Kbps
Width : 720 pixels
Height : 576 pixels
Display aspect ratio : 4:3
Frame rate mode : Constant
Frame rate : 25.000 fps
Standard : PAL
Color space : YUV
Chroma subsampling : 4:2:0
Bit depth : 8 bits
Scan type : Interlaced
Scan order : Top Field First
Compression mode : Lossy
Bits/(Pixel*Frame) : 0.149
Time code of first frame : 00:00:00:00
Time code source : Group of pictures header
GOP, Open/Closed : Open
Stream size : 890 MiB (87%)
Default : Yes
Forced : No

Audio
ID : 2
Format : MPEG Audio
Format version : Version 1
Format profile : Layer 2
Codec ID : A_MPEG/L2
Codec ID/Hint : MP2
Duration : 1h 20mn
Bit rate mode : Constant
Bit rate : 192 Kbps
Channel(s) : 2 channels
Sampling rate : 48.0 KHz
Compression mode : Lossy
Stream size : 110 MiB (11%)
Language : Russian
Default : Yes
Forced : No




pb.wtf



Скачать Пришествие: Встреча с пришельцами через торрент http://pic1.kartinco.top/images/10/6wdms.jpg Скачать фильм Пришествие: Встреча с пришельцами через торрент бесплантно в хорошем качестве Описание: Мы не встречались с внеземными цивилизациями, инопланетный корабль не касался поверхности Земли, но в этом псевдодокументальном ... 9.4 10 8
Info! Золотая раздача, скачанное не засчитывается.
Торрент: Зарегистрирован [2016-09-14 16:04] · скачан: 109 раз
Статус: √ проверено
Размер: 1021 MB
Как cкачать? Как скачать Пришествие: Встреча с пришельцами через торрент | UTorrent

28-11-2019 20:33  

Отключить всю рекламу на сайте

14-09-2016 17:19 Пришествие: Встреча с пришельцами Скачать торрент  

Не забывайте кнопку спасибо) pb.wtf



    Дорогой пользователь! Огромная просьба, поблагодарите релизера, оцените раздачу и оставьте свои комментарий, если Вы скачали Пришествие: Встреча с пришельцами через торрент бесплатно! Внесите свою лепту в развитие PiratBit!
    Комментировать посты могут только пользователи прошедшие не сложную регистрацию
    Показать сообщения:    

    Пришествие: Встреча с пришельцами через торрент
    Скачать бесплатно Пришествие: Встреча с пришельцами
    Пришествие: Встреча с пришельцами скачать торрент
    Пришествие: Встреча с пришельцами смотреть онлайн
    Cкачать фильм Пришествие: Встреча с пришельцами бесплатно
    Пришествие: Встреча с пришельцами скачать торрент в хорошем качестве
    Пришествие: Встреча с пришельцами смотреть онлайн бесплатно в хорошем качестве


    Вы не можете начинать темы
    Вы не можете отвечать на сообщения
    Вы не можете редактировать свои сообщения
    Вы не можете удалять свои сообщения
    Вы не можете голосовать в опросах
    Вы не можете прикреплять файлы к сообщениям
    Вы можете скачивать файлы