2 сезон

iTunes

MVO

1

2 сезон

iTunes

iTunes

1 сезон

RePack

30

Ultimate

ВАЖНО

ИГРА 18+

pack

RePack

MK11
pack

Легкие деньги

RePack

jed

RePack

fifa19

RePack

RDR2

RePack

NEED FOR SPEED™ PAYBACK

4 сезон

9 сезон

Бесстыжие 9 сезон

Все сериалы

все сериалы на PB.wtf

RePack

FAR CRY 5

Anonymous, доброй ночи, мы не успеваем собрать деньги на оплату серверов за декабрь и январь, помогите нам пожалуйста в это трудное время. В качестве благодарности мы отключим Вам всю рекламу на сайте (укажите свой ник в строку Ваше имя)!

×
  
Magnet ссылка

Вспомнить всё / Total Recall (Лен Уайзман ) [2012, фантастика, боевик, триллер, BDRip 720p 60 FPS, театральная версия] Дубляж pb.wtf

Вспомнить всё через торрент pb.wtf

Размер: 7.14 GB | Добавлен: 4 года 4 мес. назад | Торрент скачан:342 раза
Скачать  

14-09-2016 17:23 Вспомнить всё Скачать торрент  

Вспомнить всё / Total Recall

Год выпуска: 2012
Страна: США, Канада
Жанр: фантастика, боевик, триллер, детектив, приключения

Продолжительность: 01:58:18
Перевод: Дубляж
Режиссер: Лен Уайзман
В ролях: Колин Фаррелл (Douglas Quaid / Hauser), Кейт Бекинсейл (Lori Quaid), Джессика Бил (Melina), Брайан Крэнстон (Cohaagen), Боким Вудбайн (Harry), Билл Найи (Matthias), Джон Чо (McClane), Уилл Юн Ли (Marek), Милтон Барнс (Resistance Fighter), Джеймс Макгоун (Military Adjutant), Натали Лисинска (Bohemian Nurse), Майкл Терриоль (Bank Clerk)
Описание:
Он - обычный рабочий-строитель, живущий в маленькой квартирке в захудалом районе города будущего где-то в Новой Азии. Хотя собственная жизнь его в целом устраивает, он не может избавиться от чувства, что ему хочется чего-то большего. Потребность в новых будоражащих впечатлениях приводит его в офис компании «Вспомнить всё», имплантирующей в память своих клиентов воспоминания-фантазии, которые они могут получить не рискуя при этом пережить сами события в реальности. Пока герой выбирает, какие именно воспоминания ему приобрести, отряд спецназа штурмует комнату, где он находится, и уже было берет его под арест. К своему собственному удивлению, он молниеносно уничтожает весь отряд при помощи невероятных бойцовских навыков, о владении которыми он и не подозревал...
Рейтинг:

MPAA: PG-13 - Детям до 13 лет просмотр не желателен
Качество: BDRip 720p
Формат: MKV
Видео: AVC, 1280x536 (2.40:1), 8000 kbps, 59,940 fps, 0,195 bpp
Аудио: русский / AC3 / 5.1 / 48 kHz / 640 kbps / ||
Автор Рипа: Аман Абди

General
Unique ID : 178059737625184548366105974296959104005 (0x85F50EDCE7178B44BAE792C80509B405)
Complete name : D:\Temp\Вспомнить всё 2012 720p 60 FPS.mkv
Format : Matroska
Format version : Version 4 / Version 2
File size : 7.14 GiB
Duration : 1 h 58 min
Overall bit rate : 8 643 kb/s
Encoded date : UTC 2016-09-14 18:34:36
Writing application : mkvmerge v9.2.0 ('Photograph') 64bit
Writing library : libebml v1.3.3 + libmatroska v1.4.4
Cover : Yes
Attachments : cover.jpg

Video
ID : 1
Format : AVC
Format/Info : Advanced Video Codec
Format profile : High@L4.1
Format settings, CABAC : Yes
Format settings, ReFrames : 9 frames
Codec ID : V_MPEG4/ISO/AVC
Duration : 1 h 58 min
Bit rate : 8 000 kb/s
Width : 1 280 pixels
Height : 536 pixels
Display aspect ratio : 2.40:1
Frame rate mode : Constant
Frame rate : 59.940 (59940/1000) FPS
Color space : YUV
Chroma subsampling : 4:2:0
Bit depth : 8 bits
Scan type : Progressive
Bits/(Pixel*Frame) : 0.195
Stream size : 6.61 GiB (93%)
Writing library : x264 core 146 r2538 121396c
Encoding settings : cabac=1 / ref=9 / deblock=1:0:0 / analyse=0x3:0x113 / me=umh / subme=9 / psy=1 / psy_rd=1.00:0.10 / mixed_ref=1 / me_range=32 / chroma_me=1 / trellis=2 / 8x8dct=1 / cqm=0 / deadzone=21,11 / fast_pskip=0 / chroma_qp_offset=-3 / threads=6 / lookahead_threads=1 / sliced_threads=0 / nr=0 / decimate=1 / interlaced=0 / bluray_compat=0 / constrained_intra=0 / bframes=16 / b_pyramid=2 / b_adapt=2 / b_bias=0 / direct=3 / weightb=1 / open_gop=0 / weightp=2 / keyint=250 / keyint_min=25 / scenecut=40 / intra_refresh=0 / rc_lookahead=40 / rc=2pass / mbtree=1 / bitrate=8000 / ratetol=1.0 / qcomp=0.60 / qpmin=0 / qpmax=69 / qpstep=4 / cplxblur=20.0 / qblur=0.5 / vbv_maxrate=14000 / vbv_bufsize=14000 / nal_hrd=none / filler=0 / ip_ratio=1.40 / aq=1:1.00
Language : English
Default : Yes
Forced : No

Audio
ID : 2
Format : AC-3
Format/Info : Audio Coding 3
Mode extension : CM (complete main)
Format settings, Endianness : Big
Codec ID : A_AC3
Duration : 1 h 58 min
Bit rate mode : Constant
Bit rate : 640 kb/s
Channel(s) : 6 channels
Channel positions : Front: L C R, Side: L R, LFE
Sampling rate : 48.0 kHz
Frame rate : 31.250 FPS (1536 spf)
Compression mode : Lossy
Stream size : 542 MiB (7%)
Title : Дубляж
Language : Russian
Default : Yes
Forced : No
pb.wtf



Скачать Вспомнить всё через торрент http://i83.fastpic.ru/big/2016/0914/8d/29995e663681f15663d2871eb12bbd8d.jpg Скачать фильм Вспомнить всё через торрент бесплантно в хорошем качестве Описание: Он - обычный рабочий-строитель, живущий в маленькой квартирке в захудалом районе города будущего где-то в Новой Азии. Хотя ... 9.7 10 17
Info! Золотая раздача, скачанное не засчитывается.
Торрент: Зарегистрирован [2016-09-14 17:23] · скачан: 342 раз
Статус: √ проверено
Размер: 7.14 GB
Как cкачать? Как скачать Вспомнить всё через торрент | UTorrent

% Раздел Тема Автор DL S | L
Фильмы [HD 720p, 1080p] (Хороший звук DUB, MVO) [ 6.85 GB ] Вспомнить всё / Total Recall [2012 BDRip 1080p HEVC ()] Мичман37 Скачать
1 | 0
Фильмы (Blu-ray, BD-Remux, HDDVD) [ 64.19 GB ] Вспомнить всё​ / Total Recall [2012 Blu-ray лицензия] / [Theatrical & Extended Cut] / 2 Disc set shuller Скачать
1 | 0

28-11-2019 20:33  

Отключить всю рекламу на сайте

14-09-2016 19:18 Вспомнить всё Скачать торрент  

нормальное, кстати, кино! особенно интересно созданы верхние трущобы :)pb.wtf



    Дорогой пользователь! Огромная просьба, поблагодарите релизера, оцените раздачу и оставьте свои комментарий, если Вы скачали Вспомнить всё через торрент бесплатно! Внесите свою лепту в развитие PiratBit!
    Комментировать посты могут только пользователи прошедшие не сложную регистрацию
    Показать сообщения:    

    Вспомнить всё через торрент
    Скачать бесплатно Вспомнить всё
    Вспомнить всё скачать торрент
    Вспомнить всё смотреть онлайн
    Cкачать фильм Вспомнить всё бесплатно
    Вспомнить всё скачать торрент в хорошем качестве
    Вспомнить всё смотреть онлайн бесплатно в хорошем качестве


    Вы не можете начинать темы
    Вы не можете отвечать на сообщения
    Вы не можете редактировать свои сообщения
    Вы не можете удалять свои сообщения
    Вы не можете голосовать в опросах
    Вы не можете прикреплять файлы к сообщениям
    Вы можете скачивать файлы