Всегда рабочее зеркало просто перед .vidak.icu напиши любое слово или цифру, Пример http://klo.vidak.icu

>

7.4

iTunes

7.4

2 сезон

6.6

iTunes

1

7.4

2 сезон

7.2

iTunes

6.0

MVO

13

6.1

iTunes

8.3

Пиратка

30

ULTIMATE

pack

9.9

Лицензия

ВАЖНО

ИГРА 18+

pack

7.3

RePack

MK11

7.7

RePack

jed

7.8

RePack

fifa19

8.5

RePack

RDR2

RePack

NEED FOR SPEED™ PAYBACK

1 сезон

9 сезон

Бесстыжие 9 сезон

Все сериалы

все сериалы на PB.wtf

RePack

FAR CRY 5

Anonymous, доброй ночи, мы катастрофически не успеваем собрать деньги на оплату серверов, помогите нам пожалуйста 5,10,15р., для нас важна любая помощь . В качестве благодарности мы отключим Вам всю рекламу на сайте (укажите свой ник в строку Ваше имя)!

×
  
Magnet ссылка

Война Тромы / Troma's War (Майкл Херц , Ллойд Кауфман ) [1988, ужасы, боевик, триллер, DVDRip, Авторский одноголосый [Сергей Кузнецов]] pb.wtf

Война Тромы через торрент pb.wtf

Размер: 1.45 GB | Добавлен: 5 лет 4 мес. назад | Торрент скачан:19 раз
Смотреть онлайн Война Тромы | Скачать    Ребята, помогите собрать деньги на оплату серверов!!!

14-09-2016 20:21 Война Тромы Скачать торрент  

Война Тромы / Troma's War
«NOT a true story but who cares!»
Год выпуска: 1988
Страна: США
Жанр: ужасы, боевик, триллер, комедия, приключения
Продолжительность: 01:44:12
Перевод: Авторский одноголосый [Сергей Кузнецов]
Режиссер: Майкл Херц , Ллойд Кауфман
В ролях: Кэролин Бошан (Lydia), Шон Бауэн (Taylor), Рик Уошберн (Parker), Патрик Уэверз (Kirkland), Джессика Даблин (Dottie), Стивен Кроссли (Marshall), Лорэйн Лэйн Делюка (Maria), Чарльз Кэй-Хьюн (Hardwick), Ара Романофф (Cooney), Бренда Брок (Kim), Лизабет Кауфман (Jingoistic Baby), Лиза Петруно (Jennifer)
Описание: Лайнер, летящий из Тромавиля, терпит крушение на берегу необитаемого острова недалеко от Кубы, выживших остается менее 20 человек. Но дикий остров хранит в себе огромную тайну, террористы со всего света съезжаются туда, что бы пройти обучение и отправиться в США, что бы устроить там хаос. Но жители Тромавиля могут постоять за себя, начиная свой поход в защиту собственных жизней и судьбы Америки.
Рейтинг:

MPAA: R - Лицам до 17 лет обязательно присутствие взрослого
Качество: DVDRip
Формат: AVI
Видео: XviD, 624x480 (4:3), 1892 kbps, 23,976 fps, 0,264 bpp
Аудио: MPEG-1/2 L3 / 2.0 / 44 kHz / 96 kbps /

General
Complete name : D:\торренты\Troma's.War.1987.DVDRip.Xvid-Zombie.Lee.avi
Format : AVI
Format/Info : Audio Video Interleave
File size : 1.45 GiB
Duration : 1 h 44 min
Overall bit rate : 1 998 kb/s
Writing library : VirtualDub build 33790/release

Video
ID : 0
Format : MPEG-4 Visual
Format profile : Advanced Simple@L5
Format settings, BVOP : 1
Format settings, QPel : No
Format settings, GMC : No warppoints
Format settings, Matrix : Custom
Codec ID : XVID
Codec ID/Hint : XviD
Duration : 1 h 44 min
Bit rate : 1 893 kb/s
Width : 624 pixels
Height : 480 pixels
Display aspect ratio : 4:3
Frame rate : 23.976 (24000/1001) FPS
Color space : YUV
Chroma subsampling : 4:2:0
Bit depth : 8 bits
Scan type : Progressive
Compression mode : Lossy
Bits/(Pixel*Frame) : 0.264
Stream size : 1.38 GiB (95%)
Writing library : XviD 64

Audio
ID : 1
Format : MPEG Audio
Codec ID : 55
Codec ID/Hint : MP3
Duration : 1 h 44 min
Bit rate : 96.0 kb/s
Channel(s) : 2 channels
Sampling rate : 44.1 kHz
Compression mode : Lossy
Stream size : 71.6 MiB (5%)
Alignment : Split accross interleaves
Interleave, duration : 42 ms (1.00 video frame)
Interleave, preload duration : 500 ms
pb.wtf



Скачать Война Тромы через торрент http://i82.fastpic.ru/big/2016/0914/c0/6ff7da9e8454c89f4c09ed9d13f78cc0.png Скачать, смотреть онлайн Война Тромы бесплантно в хорошем качестве Описание: Лайнер, летящий из Тромавиля, терпит крушение на берегу необитаемого острова недалеко от Кубы, выживших остается менее 20 ... 10 10 1
Торрент: Зарегистрирован [2016-09-14 20:21] · скачан: 19 раз
Статус: √ проверено
Размер: 1.45 GB
Как cкачать? Как скачать Война Тромы через торрент | UTorrent

28-11-2019 20:33  

Отключить всю рекламу на сайте

15-09-2016 03:51 Война Тромы Скачать торрент  

как фильм?pb.wtf



15-09-2016 05:43 Война Тромы Скачать торрент  

bober100 писал(а):

как фильм?

Как по мне, достаточно хороший стёб над американскими боевиками pb.wtf



    Дорогой пользователь! Огромная просьба, поблагодарите релизера, оцените раздачу и оставьте свои комментарий, если Вы скачали Война Тромы через торрент бесплатно!
    Комментировать посты могут только пользователи прошедшие не сложную регистрацию
    Показать сообщения:    

    Война Тромы через торрент
    Скачать бесплатно Война Тромы
    Война Тромы скачать торрент
    Война Тромы смотреть онлайн
    Cкачать фильм Война Тромы бесплатно
    Война Тромы скачать торрент в хорошем качестве
    Война Тромы смотреть онлайн бесплатно в хорошем качестве


    Вы не можете начинать темы
    Вы не можете отвечать на сообщения
    Вы не можете редактировать свои сообщения
    Вы не можете удалять свои сообщения
    Вы не можете голосовать в опросах
    Вы не можете прикреплять файлы к сообщениям
    Вы можете скачивать файлы