новый адрес пиратбит piratbit
Мега распродажа FORZA HORIZON 4 ULTIMATE+ВСЕ DLC+ОНЛАЙН всего за 499р. 349 руб. (супер цена). Внимание количество ограничено!!!

iTunes

1+1

iTunes

мы

iTunes

1

iTunes

Чернобыль

iTunes

Ральф против интернета

Лицензия

ПШазам

Лицензия

Игра престолов

Лицензия

30
pack

ВАЖНО

!!Акция!!

Alien_RageХит недели

RePack

Resident Evil 21

ИГРА 18+

pack

RePack

Metro:Exodus

!!Акция!!

Alien_Rage

RePack

fifa19

RePack

Assassins Creed: Odyssey

RePack

NEED FOR SPEED™ PAYBACK

3 сезон

9 сезон

Бесстыжие 9 сезон

Все сериалы

все сериалы на PB.wtf

RePack

FAR CRY 5
Ребята, катастрофически не хватает 1900р. для оплаты серверов за Октябрь (всвязи с блокировками трафик упал в 3 раза), 1-2р., выручайте.
  

Озеро Эри / Lake Eerie (Крис Мэйджорс / Chris Majors) [2016 г., Ужасы, Фантастика, Триллер, WEBRip, Любительский (двухголосый)] pb.wtf

Озеро Эри через торрент pb.wtf

Размер: 1.65 GB | Добавлен: 3 года 2 мес. назад | Торрент скачан:194 раза
Скачать  

15-09-2016 12:52 Озеро Эри Скачать торрент  

Озеро Эри / Lake Eerie
Год выпуска: 2016
Страна: США
Жанр: Ужасы, Фантастика, Триллер
Продолжительность: 01:43:59
Перевод: Любительский (двухголосый) [RecentFilms]
Субтитры: Отсутствуют

Режиссер: Крис Мэйджорс
Продюссер: Дж. Ларри Батлер, Elizabeth Lammert, Nick Langsford
Сценарий: Мередит Мэйджерс

Премьера в мире: 15 января 2016

В ролях: Лэнс Хенриксен,Мэрилин Гильотти, Бетси Бейкер,Мередит Мэйджерс, Аль Сноу, Ben Furney, Дж. Ларри Батлер, Джейсон К. Уиксом, Аннемийн Ниувкоп, Крис Мэйджорс

Описание: Молодая вдова переезжает в старый дом на озере Эри, чтобы оправиться от внезапной потери своего мужа. Тем не менее, она вскоре обнаруживает страшную тайну, и что она не одна.



Доп. информация: Присутствует реклама



Качество: WEBRip
Формат: AVI
Видео кодек: XviD
Аудио кодек: MP3
Видео: 720x362 (1,989), 23,976 fps, 2135 kbps, 0.342 bit/pixel
Аудио: 48 kHz, MP3, 2 ch, ~128 kbps
скриншот   скриншот   скриншот   скриншот   скриншот  

Общее
Полное имя: B:\Фильмы\Lake.Eerie.2016.DVO.WEBRip.avi
Формат: AVI
Формат/Информация: Audio Video Interleave
Размер файла: 1,65 Гбайт
Продолжительность: 1 ч. 43 м.
Общий поток: 2272 Кбит/сек
Программа кодирования: VirtualDubMod 1.5.10.2 (build 2540/release)
Библиотека кодирования: VirtualDubMod build 2540/release

Видео
Идентификатор: 0
Формат: MPEG-4 Visual
Профиль формата: Advanced Simple@L5
Параметр BVOP формата: 2
Параметр QPel формата: Нет
Параметр GMC формата: Без точки перехода
Параметр матрицы формата: Default (H.263)
Режим смешивания: Сжатый битовый поток
Идентификатор кодека: XVID
Идентификатор кодека/Подсказка: XviD
Продолжительность: 1 ч. 43 м.
Битрейт: 2135 Кбит/сек
Ширина: 720 пикселей
Высота: 362 пикселя
Соотношение сторон: 1,989
Частота кадров: 23,976 кадра/сек
Частота кадров в оригинале: 24,000 кадра/сек
Цветовое пространство: YUV
Субдискретизация насыщенности: 4:2:0
Битовая глубина: 8 бит
Тип развёртки: Прогрессивная
Метод сжатия: С потерями
Бит/(Пиксели*Кадры): 0.342
Размер потока: 1,55 Гбайт (94%)
Библиотека кодирования: XviD 67

Аудио
Идентификатор: 1
Формат: MPEG Audio
Версия формата: Version 1
Профиль формата: Layer 3
Идентификатор кодека: 55
Идентификатор кодека/Подсказка: MP3
Продолжительность: 1 ч. 43 м.
Вид битрейта: Постоянный
Битрейт: 128 Кбит/сек
Каналы: 2 канала
Частота: 48,0 КГц
Метод сжатия: С потерями
Размер потока: 95,2 Мбайт (6%)
Выравнивание: Соединение по промежуткам
Продолжительность промежутка: 42 мс. (1,00 видеокадр)
Время предзагрузки промежутка: 504 мс.

pb.wtf



Скачать Озеро Эри через торрент http://i85.fastpic.ru/big/2016/0915/5d/1f489e2ab409bedb37cf5332653fa15d.jpg Скачать фильм Озеро Эри через торрент бесплантно в хорошем качестве Описание: Молодая вдова переезжает в старый дом на озере Эри, чтобы оправиться от внезапной потери своего мужа. Тем не менее, она вскоре ... 10 10 4
Торрент: Зарегистрирован [2016-09-15 12:52] · скачан: 194 раз
Статус: T временная
Размер: 1.65 GB
Как cкачать? Как скачать Озеро Эри через торрент | qTorrent

% Раздел Тема Автор DL S | L
T Фильмы (WEB-DL 720p, 1080p) [ 2.36 GB ] Озеро Эри / Lake Eerie [2016 WEBRip 720p Любительский ] Airsoft93rus Скачать
1 | 0


Последний раз редактировалось: Cruzer (2016-09-15 13:55), всего редактировалось 3 раз(а)


>> Регистрируемся здесь <<






Отзывы и комментарии о схеме читаем и пишем здесь: ---> Отзывы и комментарии о схеме

Новые благодарочки в телеграм довольных пользователей:
скриншот   скриншот   скриншот   скриншот   скриншот

15-09-2016 13:16 Озеро Эри Скачать торрент  

Cruzer,

Цитата:

Аудио кодек: AC3

Цитата:

Аудио: 48 kHz, AC-3, 2 ch, ~128 kbps

MP3pb.wtf



17-09-2016 05:54 Озеро Эри Скачать торрент  

полное гуаноpb.wtf



    Дорогой пользователь! Огромная просьба, поблагодарите релизера, оцените раздачу и оставьте свои комментарий, если Вы скачали Озеро Эри через торрент бесплатно! Внесите свою лепту в развитие PiratBit!
    Комментировать посты могут только пользователи прошедшие не сложную регистрацию
    Показать сообщения:    

    Озеро Эри через торрент
    Скачать бесплатно Озеро Эри
    Озеро Эри скачать торрент
    Озеро Эри смотреть онлайн
    Cкачать фильм Озеро Эри бесплатно
    Озеро Эри скачать торрент в хорошем качестве
    Озеро Эри смотреть онлайн бесплатно в хорошем качестве


    Вы не можете начинать темы
    Вы не можете отвечать на сообщения
    Вы не можете редактировать свои сообщения
    Вы не можете удалять свои сообщения
    Вы не можете голосовать в опросах
    Вы не можете прикреплять файлы к сообщениям
    Вы можете скачивать файлы