Ссылка на приватное зеркало всего за 1$. Внимание количество ограничено!!!

iTunes

iTunes

iTunes

1

iTunes

iTunes

iTunes

iTunes

iTunes

30
pack

$ от Little Big

ВАЖНО

!!Акция!!

Alien_RageХит недели

RePack

Resident Evil 21

ИГРА 18+

pack

RePack

jed

!!Акция!!

Alien_Rage

RePack

fifa19

RePack

Assassins Creed: Odyssey

RePack

NEED FOR SPEED™ PAYBACK

4 сезон

9 сезон

Бесстыжие 9 сезон

Все сериалы

все сериалы на PB.wtf

RePack

FAR CRY 5
  

Озеро Эри / Lake Eerie (Крис Мэйджорс) [2016 г., ужасы, фантастика, триллер, WEBRip 720p, Любительский (двухголосый)] pb.wtf

Озеро Эри через торрент pb.wtf

Размер: 2.36 GB | Добавлен: 3 года 9 мес. назад | Торрент скачан:215 раз
Скачать  

15-09-2016 13:34 Озеро Эри Скачать торрент  

Озеро Эри / Lake Eerie
Год выпуска: 2016
Страна: США
Жанр: ужасы, фантастика, триллер
Продолжительность: 01:43:58
Перевод: Любительский (двухголосый) [RecentFilms]
Субтитры: нет

Режиссер: Крис Мэйджорс
Продюссер: Дж. Ларри Батлер, Elizabeth Lammert, Nick Langsford
Сценарий: Мередит Мэйджерс

Премьера в мире: 15 января 2016



В ролях: Лэнс Хенриксен / Lance Henriksen (Pop), Мэрилин Гильотти / Marilyn Ghigliotti (Realtor), Бетси Бейкер / Betsy Baker (Eliza), Мередит Мэйджерс / Meredith Majors (Kate Ryan), Аль Сноу / Al Snow (Man in Black), Ben Furney (John Ryan), Дж. Ларри Батлер / G. Larry Butler (Fire Chief), Джейсон К. Уиксом / Jason K. Wixom (Jack Hammer)

Описание: Молодая вдова переезжает в старый дом на озере Эри, чтобы оправиться от внезапной потери своего мужа. Тем не менее, она вскоре обнаруживает страшную тайну, и что она не одна.

Качество: WEBRip 720p
Формат: MKV
Видео: 1280x640 (2.000:1), 23.976 fps, AVC, 2 928 Kbps
Аудио: AC3, 256 Kbps, 48.0 KHz, 2 ch [Rus]

ПРИСУТСТВУЕТ РЕКЛАМА
скриншот  скриншот  скриншот  

Общее
Уникальный идентификатор : 224124985013495392126731733761310916866 (0xA89CE6E8F75D441C95C31B1E40510102)
Полное имя : D:\Downloads\Lake.Eerie.2016.rus.720p.Recent.Films.mkv
Формат : Matroska
Версия формата : Version 4 / Version 2
Размер файла : 2,36 Гбайт
Продолжительность : 1 ч. 43 м.
Общий поток : 3249 Кбит/сек
Дата кодирования : UTC 2016-09-14 19:38:49
Программа кодирования : mkvmerge v7.8.0 ('River Man') 64bit built on Mar 27 2015 16:31:37
Библиотека кодирования : libebml v1.3.1 + libmatroska v1.4.2

Видео
Идентификатор : 1
Формат : AVC
Формат/Информация : Advanced Video Codec
Профиль формата : Main@L4.1
Параметр CABAC формата : Нет
Параметр ReFrames формата : 4 кадра
Идентификатор кодека : V_MPEG4/ISO/AVC
Продолжительность : 1 ч. 43 м.
Битрейт : 2991 Кбит/сек
Номинальный битрейт : 4000 Кбит/сек
Ширина : 1280 пикселей
Высота : 640 пикселей
Соотношение сторон : 2,000
Режим частоты кадров : Постоянный
Частота кадров : 23,976 (24000/1001) кадра/сек
Частота кадров в оригинале : 24,000 кадра/сек
Цветовое пространство : YUV
Субдискретизация насыщенности : 4:2:0
Битовая глубина : 8 бит
Тип развёртки : Прогрессивная
Бит/(Пиксели*Кадры) : 0.152
Размер потока : 2,17 Гбайт (92%)
Библиотека кодирования : x264 core 133 r2334 a3ac64b
Настройки программы : cabac=0 / ref=3 / deblock=1:0:0 / analyse=0x1:0x111 / me=hex / subme=7 / psy=1 / psy_rd=1.00:0.00 / mixed_ref=1 / me_range=16 / chroma_me=1 / trellis=1 / 8x8dct=0 / cqm=0 / deadzone=21,11 / fast_pskip=1 / chroma_qp_offset=-2 / threads=3 / lookahead_threads=1 / sliced_threads=0 / nr=0 / decimate=1 / interlaced=0 / bluray_compat=0 / constrained_intra=0 / bframes=3 / b_pyramid=2 / b_adapt=1 / b_bias=0 / direct=1 / weightb=1 / open_gop=0 / weightp=2 / keyint=240 / keyint_min=24 / scenecut=40 / intra_refresh=0 / rc_lookahead=40 / rc=2pass / mbtree=1 / bitrate=4000 / ratetol=1.0 / qcomp=0.60 / qpmin=0 / qpmax=69 / qpstep=4 / cplxblur=20.0 / qblur=0.5 / vbv_maxrate=50000 / vbv_bufsize=62500 / nal_hrd=none / ip_ratio=1.40 / aq=1:1.00
Default : Да
Forced : Нет

Аудио
Идентификатор : 2
Формат : AC-3
Формат/Информация : Audio Coding 3
Расширение режима : CM (complete main)
Параметр Endianness формата : Big
Идентификатор кодека : A_AC3
Продолжительность : 1 ч. 43 м.
Вид битрейта : Постоянный
Битрейт : 256 Кбит/сек
Каналы : 2 канала
Расположение каналов : Front: L R
Частота : 48,0 КГц
Частота кадров : 31,250 кадров/сек (1536 spf)
Метод сжатия : С потерями
Размер потока : 190 Мбайт (8%)
Язык : Russian
Default : Да
Forced : Да

pb.wtf



Скачать Озеро Эри через торрент http://pic1.kartinco.top/images/10/13dd2.jpg Скачать фильм Озеро Эри через торрент бесплантно в хорошем качестве Описание: Молодая вдова переезжает в старый дом на озере Эри, чтобы оправиться от внезапной потери своего мужа. Тем не менее, она вскоре ... 10 10 5
Торрент: Зарегистрирован [2016-09-15 13:34] · скачан: 215 раз
Статус: T временная
Размер: 2.36 GB
Как cкачать? Как скачать Озеро Эри через торрент | qTorrent

% Раздел Тема Автор DL S | L
T Фильмы 2016 (Звук TS, Cam, VO, DVO) [ 1.65 GB ] Озеро Эри / Lake Eerie [2016 WEBRip Любительский ] Cruzer Скачать
1 | 0


Последний раз редактировалось: Airsoft93rus (2016-09-15 14:00), всего редактировалось 2 раз(а)

28-11-2019 20:33  

Отключить всю рекламу на сайте

15-09-2016 13:53 Озеро Эри Скачать торрент  

Airsoft93rus,

Цитата:

Перевод: Любительский многоголосый [RecentFilms]

двухголосый переводpb.wtf



15-09-2016 14:00 Озеро Эри Скачать торрент  

schultz, исправилpb.wtf



    Дорогой пользователь! Огромная просьба, поблагодарите релизера, оцените раздачу и оставьте свои комментарий, если Вы скачали Озеро Эри через торрент бесплатно! Внесите свою лепту в развитие PiratBit!
    Комментировать посты могут только пользователи прошедшие не сложную регистрацию
    Показать сообщения:    

    Озеро Эри через торрент
    Скачать бесплатно Озеро Эри
    Озеро Эри скачать торрент
    Озеро Эри смотреть онлайн
    Cкачать фильм Озеро Эри бесплатно
    Озеро Эри скачать торрент в хорошем качестве
    Озеро Эри смотреть онлайн бесплатно в хорошем качестве


    Вы не можете начинать темы
    Вы не можете отвечать на сообщения
    Вы не можете редактировать свои сообщения
    Вы не можете удалять свои сообщения
    Вы не можете голосовать в опросах
    Вы не можете прикреплять файлы к сообщениям
    Вы можете скачивать файлы