2 сезон

iTunes

MVO

1

2 сезон

iTunes

iTunes

1 сезон

RePack

30

Ultimate

ВАЖНО

ИГРА 18+

pack

RePack

MK11
pack

Легкие деньги

RePack

jed

RePack

fifa19

RePack

RDR2

RePack

NEED FOR SPEED™ PAYBACK

4 сезон

9 сезон

Бесстыжие 9 сезон

Все сериалы

все сериалы на PB.wtf

RePack

FAR CRY 5

Anonymous, доброй ночи, мы не успеваем собрать деньги на оплату серверов за декабрь и январь, помогите нам пожалуйста в это трудное время. В качестве благодарности мы отключим Вам всю рекламу на сайте (укажите свой ник в строку Ваше имя)!

×
  
Magnet ссылка

МакSим - Штампы. [2016 г., Pop, HDTVRip 1080p] pb.wtf

МакSим - Штампы. через торрент pb.wtf

Размер: 142 MB | Добавлен: 4 года 4 мес. назад | Торрент скачан:64 раза
Скачать  

15-09-2016 15:58 МакSим - Штампы. Скачать торрент  

МакSим - Штампы.
Год выпуска: 2016
Жанр: Pop
Продолжительность: 00:03:05
Качество:HDTVRip 1080p
Формат: MPEG4
Видео кодек: AVC
Аудио кодек:AAC
Видео: MPEG4 AVC, 1920x816, 25,000 fps, 6063 kbps
Аудио#1: AAC 48,0 kHz, 2 ch, 324 kbps
Общее
Полное имя : МакSим - Штампы.mp4
Формат : MPEG-4
Профиль формата : Base Media / Version 2
Идентификатор кодека : mp42
Размер файла : 142 Мбайт
Продолжительность : 3 м. 5 с.
Режим общего битрейта : Переменный
Общий поток : 6392 Кбит/сек

Видео
Идентификатор : 1
Формат : AVC
Формат/Информация : Advanced Video Codec
Профиль формата : High@L4.0
Параметр CABAC формата : Да
Параметр ReFrames формата : 5 кадров
Идентификатор кодека : avc1
Идентификатор кодека/Информация : Advanced Video Coding
Продолжительность : 3 м. 5 с.
Вид битрейта : Переменный
Битрейт : 6063 Кбит/сек
Максимальный битрейт : 40,0 Мбит/сек
Ширина : 1920 пикселей
Высота : 816 пикселей
Соотношение сторон : 2,35:1
Режим частоты кадров : Постоянный
Частота кадров : 25,000 кадров/сек
Цветовое пространство : YUV
Субдискретизация насыщенности : 4:2:0
Битовая глубина : 8 бит
Тип развёртки : Прогрессивная
Бит/(Пиксели*Кадры) : 0.155
Размер потока : 134 Мбайт (95%)
Язык : English

Аудио
Идентификатор : 2
Формат : AAC
Формат/Информация : Advanced Audio Codec
Профиль формата : LC
Идентификатор кодека : 40
Продолжительность : 3 м. 5 с.
Продолжительность оригинала : 3 м. 5 с.
Вид битрейта : Переменный
Битрейт : 324 Кбит/сек
Каналы : 2 канала
Расположение каналов : Front: L R
Частота : 48,0 КГц
Метод сжатия : С потерями
Размер потока : 7,16 Мбайт (5%)
Размер потока оригинала : 7,16 Мбайт (5%)
Язык : English
mdhd_Duration : 185408

pb.wtf



Скачать МакSим - Штампы. через торрент http://funkyimg.com/i/2gMHX.jpg Скачать фильм МакSим - Штампы. [2016 г., Pop, HDTVRip 1080p]через торрент бесплантно в хорошем качестве Год выпуска: 2016Жанр: PopПродолжительность: ... 6.8 10 4
Торрент: Зарегистрирован [2016-09-15 15:58] · скачан: 64 раз
Статус: √ проверено
Размер: 142 MB
Как cкачать? Как скачать МакSим - Штампы. через торрент | UTorrent

28-11-2019 20:33  

Отключить всю рекламу на сайте

16-09-2016 17:11 МакSим - Штампы. Скачать торрент  

хороший клипpb.wtf



    Дорогой пользователь! Огромная просьба, поблагодарите релизера, оцените раздачу и оставьте свои комментарий, если Вы скачали МакSим - Штампы. через торрент бесплатно! Внесите свою лепту в развитие PiratBit!
    Комментировать посты могут только пользователи прошедшие не сложную регистрацию
    Показать сообщения:    

    МакSим - Штампы. через торрент
    Скачать бесплатно МакSим - Штампы.
    МакSим - Штампы. скачать торрент
    МакSим - Штампы. смотреть онлайн
    Cкачать фильм МакSим - Штампы. бесплатно
    МакSим - Штампы. скачать торрент в хорошем качестве
    МакSим - Штампы. смотреть онлайн бесплатно в хорошем качестве


    Вы не можете начинать темы
    Вы не можете отвечать на сообщения
    Вы не можете редактировать свои сообщения
    Вы не можете удалять свои сообщения
    Вы не можете голосовать в опросах
    Вы не можете прикреплять файлы к сообщениям
    Вы можете скачивать файлы