Ссылка на приватное зеркало всего за 1$. Внимание количество ограничено!!!


iTunes

1+1

iTunes

мы

WEB-DL

1

iTunes

Чернобыль

iTunes

Ральф против интернета

Лицензия

ПШазам

Лицензия

Оно 2

WEB-DL

30
pack

Вам бонус

ВАЖНО

!!Акция!!

Alien_RageХит недели

RePack

Resident Evil 21

ИГРА 18+

pack

RePack

jed

!!Акция!!

Alien_Rage

RePack

fifa19

RePack

Assassins Creed: Odyssey

RePack

NEED FOR SPEED™ PAYBACK

4 сезон

9 сезон

Бесстыжие 9 сезон

Все сериалы

все сериалы на PB.wtf

RePack

FAR CRY 5
Ребята, катастрофически не хватает 1900р. для оплаты серверов за Октябрь (всвязи с блокировками трафик упал в 3 раза), 1-2р., выручайте.
  

Пожнешь бурю / Inherit the Wind (Стэнли Крамер) [1960 г., драма, история, BDRip] MVO pb.wtf

Пожнешь бурю через торрент pb.wtf

Размер: 2.18 GB | Добавлен: 3 года 2 мес. назад | Торрент скачан:7 раз
Скачать  

16-09-2016 06:08 Пожнешь бурю Скачать торрент  

Пожнешь бурю / Inherit the Wind
Год выпуска: 1960
Страна: США
Жанр: драма, история
Продолжительность: 02:07:54
Перевод: Профессиональный (многоголосый) [5 канал СПб]

Режиссер: Стэнли Крамер
Продюссер: Стэнли Крамер
Сценарий: Недрик Янг, Харольд Джейкоб Смит, Джером Лоуренс

Премьера в мире: 25 июня 1960



В ролях: Спенсер Трэйси, Фредрик Марч, Джин Келли, Дик Йорк, Донна Андерсон, Гарри Морган, Клод Экинс, Эллиот Рид, Пол Хартман, Филип Кулидж, Джимми Бойд, Ной Бири мл., Норман Фелл, Гордон Полк, Хоуп Саммерс, Рэй Тил, Рени Годфри, Флоренс Элдридж, Гэйл Бонни, Джек Дэйли

Описание: Этот фильм посвящен событиям 1925 года в Дейтоне, штат Теннесси, когда школьный учитель был осужден за преподавание эволюционной теории, что в то время было запрещено. Несмотря на моральную победу адвоката (ранее протестовавшего против такого запрета) в этих дебатах, учитель был осужден и приговорен к штрафу в 100 долларов.

Качество: BDRip (Inherit the Wind 1960 1080p Bluray Remux AVC FLAC 1.0 - UQ)
Формат: AVI
Видео кодек: XviD
Аудио кодек: AC3
Видео: XviD, 2207 Кбит/с, 720x432, 23.976 кадр/с
Аудио: АС3, 2 ch, 224 Кбит/с, 48 kHz
Релиз от: Koenig
Общее
Полное имя : Inherit.the.Wind.1960.BDRip.avi
Формат : AVI
Формат/Информация : Audio Video Interleave
Профиль формата : OpenDML
Размер файла : 2,18 Гбайт
Продолжительность : 2 ч. 7 м.
Общий поток : 2443 Кбит/сек
Программа кодирования : VirtualDubMod 1.5.10.2 (build 2540/release)
Библиотека кодирования : VirtualDubMod build 2540/release

Видео
Идентификатор : 0
Формат : MPEG-4 Visual
Профиль формата : Advanced Simple@L5
Параметр BVOP формата : 1
Параметр QPel формата : Нет
Параметр GMC формата : Без точки перехода
Параметр матрицы формата : Выборочная
Идентификатор кодека : XVID
Идентификатор кодека/Подсказка : XviD
Продолжительность : 2 ч. 7 м.
Битрейт : 2207 Кбит/сек
Ширина : 720 пикселей
Высота : 432 пикселя
Соотношение сторон : 5:3
Частота кадров : 23,976 (23976/1000) кадра/сек
Цветовое пространство : YUV
Субдискретизация насыщенности : 4:2:0
Битовая глубина : 8 бит
Тип развёртки : Прогрессивная
Метод сжатия : С потерями
Бит/(Пиксели*Кадры) : 0.296
Размер потока : 1,97 Гбайт (90%)
Библиотека кодирования : XviD 73

Аудио
Идентификатор : 1
Формат : AC-3
Формат/Информация : Audio Coding 3
Расширение режима : CM (complete main)
Параметр Endianness формата : Big
Идентификатор кодека : 2000
Продолжительность : 2 ч. 7 м.
Вид битрейта : Постоянный
Битрейт : 224 Кбит/сек
Каналы : 2 канала
Расположение каналов : Front: L R
Частота : 48,0 КГц
Частота кадров : 31,250 кадров/сек (1536 spf)
Метод сжатия : С потерями
Размер потока : 205 Мбайт (9%)
Выравнивание : Разделение по промежуткам
Продолжительность промежутка : 42 мс. (1,00 видеокадр)
Время предзагрузки промежутка : 500 мс.

Пожнешь бурю скачать торрент

pb.wtf



Скачать Пожнешь бурю через торрент http://pic1.kartinco.top/images/10/95cam.jpg Скачать фильм Пожнешь бурю через торрент бесплантно в хорошем качестве Описание: Этот фильм посвящен событиям 1925 года в Дейтоне, штат Теннесси, когда школьный учитель был осужден за преподавание эволюционной ... 10 10 1
Info! Золотая раздача, скачанное не засчитывается.
Торрент: Зарегистрирован [2016-09-16 06:08] · скачан: 7 раз
Статус: √ проверено
Размер: 2.18 GB
Как cкачать? Как скачать Пожнешь бурю через торрент | qTorrent

28-11-2019 20:33  

Отключить всю рекламу на сайте

    Дорогой пользователь! Огромная просьба, поблагодарите релизера, оцените раздачу и оставьте свои комментарий, если Вы скачали Пожнешь бурю через торрент бесплатно! Внесите свою лепту в развитие PiratBit!
    Комментировать посты могут только пользователи прошедшие не сложную регистрацию
    Показать сообщения:    

    Пожнешь бурю через торрент
    Скачать бесплатно Пожнешь бурю
    Пожнешь бурю скачать торрент
    Пожнешь бурю смотреть онлайн
    Cкачать фильм Пожнешь бурю бесплатно
    Пожнешь бурю скачать торрент в хорошем качестве
    Пожнешь бурю смотреть онлайн бесплатно в хорошем качестве


    Вы не можете начинать темы
    Вы не можете отвечать на сообщения
    Вы не можете редактировать свои сообщения
    Вы не можете удалять свои сообщения
    Вы не можете голосовать в опросах
    Вы не можете прикреплять файлы к сообщениям
    Вы можете скачивать файлы