новый адрес пиратбит piratbit
Мега распродажа FORZA HORIZON 4 ULTIMATE+ВСЕ DLC+ОНЛАЙН всего за 499р. 349 руб. (супер цена). Внимание количество ограничено!!!

iTunes

1+1

iTunes

мы

iTunes

1

iTunes

Чернобыль

iTunes

Ральф против интернета

Лицензия

ПШазам

Лицензия

Игра престолов

Лицензия

30
pack

ВАЖНО

!!Акция!!

Alien_RageХит недели

RePack

Resident Evil 21

ИГРА 18+

pack

RePack

Metro:Exodus

!!Акция!!

Alien_Rage

RePack

fifa19

RePack

Assassins Creed: Odyssey

RePack

NEED FOR SPEED™ PAYBACK

3 сезон

9 сезон

Бесстыжие 9 сезон

Все сериалы

все сериалы на PB.wtf

RePack

FAR CRY 5
Ребята, катастрофически не хватает 1900р. для оплаты серверов за Октябрь (всвязи с блокировками трафик упал в 3 раза), 1-2р., выручайте.
  

Захват / Secuestrados (Мигель Анхель Вивас ) [2010, триллер, криминал, BDRip 720p от potroks] Dub [Лицензия] pb.wtf

Захват через торрент pb.wtf

Размер: 2.91 GB | Добавлен: 3 года 1 мес. назад | Торрент скачан:118 раз
Скачать  

16-09-2016 07:35 Захват Скачать торрент  

Захват / Secuestrados

Год выпуска: 2010
Страна: Испания, Франция / Millennium Films...
Жанр: триллер, криминал
Продолжительность: 01:21:08
Перевод: Дубляж [R5]
Субтитры: русские (R5), русские (Serene), английские, испанские
Навигация по главам: есть
Режиссер: Мигель Анхель Вивас
В ролях:

Фернандо Кайо (Jaime), Мануэла Вельес (Isa), Ана Вахенер (Marta), Гильермо Барриентос (Asaltante Joven), Дритан Биба (Asaltante Jefe), Мартин Кюипер (Asaltante Fuerte), Хоэль Яньез (César), Луис Иглесиас (Javier), Пепо Суэвос (Guardia de Seguridad), Эдуардо Торроха (Conductor), Сесар Диас (Encargado), Кандела Фернандес (Mujer Cajero)
Описание: Преуспевающая семья переезжает в новый роскошный дом. Новоселье, приятные хлопоты и уверенность в счастливом будущем.

Качество: BDRip 720p
Формат: MKV
Видео: AVC, 1280x544 (2.35:1), 4303 kbps, 25 fps, 0,247 bpp
Аудио №1: AC3 / 5.1 / 48 kHz / 384 kbps / 16 bit | RUS
Аудио №2: AC3 / 5.1 / 48 kHz / 448 kbps / 16 bit | SPA

Код:

General
Unique ID                                : 212653797288827817269665371489189521218 (0x9FFBA1B0727BF83F807D5B51D4846742)
Complete name                            : N:\Триллер\Zahvat.2010.DUAL.BDRip.720p.-HELLYWOOD.mkv
Format                                   : Matroska
Format version                           : Version 4 / Version 2
File size                                : 2.91 GiB
Duration                                 : 1 h 21 min
Overall bit rate                         : 5 133 kb/s
Movie name                               : Secuestrados (2010)
Encoded date                             : UTC 2016-07-27 20:50:03
Writing application                      : mkvmerge v5.9.0 ('On The Loose') built on Dec 15 2012 16:39:58
Writing library                          : libebml v1.3.0 + libmatroska v1.4.0

Video
ID                                       : 1
Format                                   : AVC
Format/Info                              : Advanced Video Codec
Format profile                           : High@L4.1
Format settings, CABAC                   : Yes
Format settings, ReFrames                : 9 frames
Codec ID                                 : V_MPEG4/ISO/AVC
Duration                                 : 1 h 21 min
Bit rate                                 : 4 303 kb/s
Width                                    : 1 280 pixels
Height                                   : 544 pixels
Display aspect ratio                     : 2.35:1
Frame rate mode                          : Constant
Frame rate                               : 25.000 FPS
Color space                              : YUV
Chroma subsampling                       : 4:2:0
Bit depth                                : 8 bits
Scan type                                : Progressive
Bits/(Pixel*Frame)                       : 0.247
Stream size                              : 2.38 GiB (82%)
Title                                    : potroks
Writing library                          : x264 core 146 r2538 121396c
Encoding settings                        : cabac=1 / ref=9 / deblock=1:-3:-3 / analyse=0x3:0x113 / me=umh / subme=11 / psy=1 / psy_rd=1.00:0.05 / mixed_ref=1 / me_range=48 / chroma_me=1 / trellis=2 / 8x8dct=1 / cqm=0 / deadzone=21,11 / fast_pskip=0 / chroma_qp_offset=-3 / threads=9 / lookahead_threads=2 / sliced_threads=0 / nr=0 / decimate=0 / interlaced=0 / bluray_compat=0 / constrained_intra=0 / bframes=11 / b_pyramid=2 / b_adapt=2 / b_bias=0 / direct=3 / weightb=1 / open_gop=0 / weightp=2 / keyint=250 / keyint_min=23 / scenecut=40 / intra_refresh=0 / rc_lookahead=60 / rc=2pass / mbtree=0 / bitrate=4303 / ratetol=1.0 / qcomp=0.70 / qpmin=0 / qpmax=69 / qpstep=4 / cplxblur=20.0 / qblur=0.5 / vbv_maxrate=14000 / vbv_bufsize=14000 / nal_hrd=none / filler=0 / ip_ratio=1.40 / pb_ratio=1.30 / aq=1:0.80
Language                                 : English
Default                                  : Yes
Forced                                   : No

Audio #1
ID                                       : 2
Format                                   : AC-3
Format/Info                              : Audio Coding 3
Mode extension                           : CM (complete main)
Format settings, Endianness              : Big
Codec ID                                 : A_AC3
Duration                                 : 1 h 21 min
Bit rate mode                            : Constant
Bit rate                                 : 384 kb/s
Channel(s)                               : 6 channels
Channel positions                        : Front: L C R, Side: L R, LFE
Sampling rate                            : 48.0 kHz
Frame rate                               : 31.250 FPS (1536 spf)
Compression mode                         : Lossy
Stream size                              : 223 MiB (7%)
Title                                    : Dub | DD 5.1 @ 384 kbpd - R5
Language                                 : Russian
Default                                  : Yes
Forced                                   : No

Audio #2
ID                                       : 3
Format                                   : AC-3
Format/Info                              : Audio Coding 3
Mode extension                           : CM (complete main)
Format settings, Endianness              : Big
Codec ID                                 : A_AC3
Duration                                 : 1 h 21 min
Bit rate mode                            : Constant
Bit rate                                 : 448 kb/s
Channel(s)                               : 6 channels
Channel positions                        : Front: L C R, Side: L R, LFE
Sampling rate                            : 48.0 kHz
Frame rate                               : 31.250 FPS (1536 spf)
Compression mode                         : Lossy
Stream size                              : 260 MiB (9%)
Title                                    : Original | DD 5.1 @ 448 kbps
Language                                 : Spanish
Default                                  : No
Forced                                   : No

Text #1
ID                                       : 4
Format                                   : UTF-8
Codec ID                                 : S_TEXT/UTF8
Codec ID/Info                            : UTF-8 Plain Text
Title                                    : R5
Language                                 : Russian
Default                                  : No
Forced                                   : No

Text #2
ID                                       : 5
Format                                   : UTF-8
Codec ID                                 : S_TEXT/UTF8
Codec ID/Info                            : UTF-8 Plain Text
Title                                    : Serene
Language                                 : Russian
Default                                  : No
Forced                                   : No

Text #3
ID                                       : 6
Format                                   : UTF-8
Codec ID                                 : S_TEXT/UTF8
Codec ID/Info                            : UTF-8 Plain Text
Language                                 : English
Default                                  : No
Forced                                   : No

Text #4
ID                                       : 7
Format                                   : UTF-8
Codec ID                                 : S_TEXT/UTF8
Codec ID/Info                            : UTF-8 Plain Text
Language                                 : Spanish
Default                                  : No
Forced                                   : No

Menu
00:00:00.000                             : en:(01)00:00:00:000
00:07:32.800                             : en:(02)00:07:32:800
00:13:40.800                             : en:(03)00:13:40:800
00:18:28.760                             : en:(04)00:18:28:760
00:24:34.520                             : en:(05)00:24:34:520
00:32:00.440                             : en:(06)00:32:00:440
00:38:16.640                             : en:(07)00:38:16:640
00:44:45.040                             : en:(08)00:44:45:040
00:51:32.680                             : en:(09)00:51:32:680
00:59:27.920                             : en:(10)00:59:27:920
01:05:09.480                             : en:(11)01:05:09:480
01:14:56.960                             : en:(12)01:14:56:960
01:21:07.880                             : en:(13)01:21:07:880

pb.wtf



Скачать Захват через торрент http://i78.fastpic.ru/big/2016/0916/56/c5c7e5d82c98c8c4a761395ce79b0556.png Скачать фильм Захват через торрент бесплантно в хорошем качестве Описание: Преуспевающая семья переезжает в новый роскошный дом. Новоселье, приятные хлопоты и уверенность в счастливом будущем. ... 7.5 10 4
Info! Золотая раздача, скачанное не засчитывается.
Торрент: Зарегистрирован [2016-09-16 07:35] · скачан: 118 раз
Статус: √ проверено
Размер: 2.91 GB
Как cкачать? Как скачать Захват через торрент | qTorrent

% Раздел Тема Автор DL S | L
Наши фильмы (HD, WEB-DL 720p, 1080p) [ 741 MB ] Захват / Secuestrados [2010 HDRip-AVC] Sудья Скачать
1 | 0
Фильмы (DVD фильмы) [ 5.72 GB ] Захват / Secuestrados [2010 DVD9] R5 «Парадиз Видео» voovaz Скачать
1 | 0
Фильмы 2010 [ 1.36 GB ] Захват / Secuestrados [2010 HDRip лицензия] Lil Badun Скачать
1 | 0


>> Регистрируемся здесь <<






Отзывы и комментарии о схеме читаем и пишем здесь: ---> Отзывы и комментарии о схеме

Новые благодарочки в телеграм довольных пользователей:
скриншот   скриншот   скриншот   скриншот   скриншот

16-09-2016 16:09 Захват Скачать торрент  

Описание шедевральное!pb.wtf



16-09-2016 16:21 Захват Скачать торрент  

besthome писал(а):

Описание шедевральное!

Судя по скринам не все там гладко))pb.wtf



16-09-2016 21:08 Захват Скачать торрент  

besthome писал(а):

Описание шедевральное!

pb.wtf



18-09-2016 04:09 Захват Скачать торрент  

фильм то как?pb.wtf



18-09-2016 16:15 Захват Скачать торрент  

Draf_Gracula писал(а):

besthome писал(а):

Описание шедевральное!


pb.wtf



    Дорогой пользователь! Огромная просьба, поблагодарите релизера, оцените раздачу и оставьте свои комментарий, если Вы скачали Захват через торрент бесплатно! Внесите свою лепту в развитие PiratBit!
    Комментировать посты могут только пользователи прошедшие не сложную регистрацию
    Показать сообщения:    

    Захват через торрент
    Скачать бесплатно Захват
    Захват скачать торрент
    Захват смотреть онлайн
    Cкачать фильм Захват бесплатно
    Захват скачать торрент в хорошем качестве
    Захват смотреть онлайн бесплатно в хорошем качестве


    Вы не можете начинать темы
    Вы не можете отвечать на сообщения
    Вы не можете редактировать свои сообщения
    Вы не можете удалять свои сообщения
    Вы не можете голосовать в опросах
    Вы не можете прикреплять файлы к сообщениям
    Вы можете скачивать файлы