Ссылка на приватное зеркало нашего сайта всего за 1$. Внимание количество ограничено!!!

2 сезон

iTunes

1 сезон

1

2 сезон

2 сезон

iTunes

1 сезон

RePack

30

Ultimate

ВАЖНО

ИГРА 18+

pack

RePack

MK11
pack

Забери бонус

RePack

jed

!!Акция!!

Alien_Rage

RePack

fifa19

RePack

Assassins Creed: Odyssey

RePack

NEED FOR SPEED™ PAYBACK

4 сезон

9 сезон

Бесстыжие 9 сезон

Все сериалы

все сериалы на PB.wtf

RePack

FAR CRY 5
  

Дорожные войны / Road Wars (Марк Аткинс) [2015 г., Фантастика, боевик, HDRip, Любительский (одноголосый) [Хихикающий доктор]] pb.wtf

Дорожные войны через торрент pb.wtf

Размер: 1.37 GB | Добавлен: 4 года 2 мес. назад | Торрент скачан:200 раз
Скачать  

16-09-2016 14:37 Дорожные войны Скачать торрент  

Дорожные войны / Road Wars
Год выпуска: 2015
Страна: США
Жанр: Фантастика, боевик
Продолжительность: 01:29:46
Перевод: Любительский (одноголосый) [Хихикающий доктор]

Режиссер: Марк Аткинс


В ролях: Хлоя Фарнворт, Коул Паркер, Джон Фриман, Филлип Андре Ботельо, Джейн Ким,
Никки Бом, Келси Уотсон, Майкл Фостер, Мика Фицджералд


Описание: После апокалипсиса Земля истощена и оставшиеся в живых люди, образуют передвижные
дорожные банды, вооруженные до зубов, чтобы найти и охранять водные ресурсы от зараженных,
которые передвигаются только ночью. Вторая угроза возникает, когда зараженные начинают мутировать
и приспосабливаться к дневному свету.

(Реклама отсутствует)


Качество: HDRip
Формат: AVI
Видео кодек: XviD
Аудио кодек: AC3

Видео: (Xvid),720x400,(16/9),v23.976 fps 1730 Kbps
Аудио#1: AC-3, 48 kHz, 6 ch, 448 Kbps



Общее
Полное имя : D:\релиз кино\Road.Wars.2015.xixidok.HDRip.ExKinoRay.avi
Формат : AVI
Формат/Информация : Audio Video Interleave
Размер файла : 1,37 Гбайт
Продолжительность : 1 ч. 29 м.
Общий поток : 2187 Кбит/сек
Программа кодирования : VirtualDubMod 1.5.10.2 (build 2540/release)
Библиотека кодирования : VirtualDubMod build 2540/release
Авторское право : ExKinoRay

Видео
Идентификатор : 0
Формат : MPEG-4 Visual
Профиль формата : Advanced Simple@L5
Параметр BVOP формата : 1
Параметр QPel формата : Нет
Параметр GMC формата : Без точки перехода
Параметр матрицы формата : Выборочная
Идентификатор кодека : XVID
Идентификатор кодека/Подсказка : XviD
Продолжительность : 1 ч. 29 м.
Битрейт : 1730 Кбит/сек
Ширина : 720 пикселей
Высота : 400 пикселей
Соотношение сторон : 16:9
Частота кадров : 23,976 (23976/1000) кадра/сек
Цветовое пространство : YUV
Субдискретизация насыщенности : 4:2:0
Битовая глубина : 8 бит
Тип развёртки : Прогрессивная
Метод сжатия : С потерями
Бит/(Пиксели*Кадры) : 0.251
Размер потока : 1,08 Гбайт (79%)
Библиотека кодирования : XviD 73

Аудио
Идентификатор : 1
Формат : AC-3
Формат/Информация : Audio Coding 3
Расширение режима : CM (complete main)
Параметр Endianness формата : Big
Идентификатор кодека : 2000
Продолжительность : 1 ч. 29 м.
Вид битрейта : Постоянный
Битрейт : 448 Кбит/сек
Каналы : 6 каналов
Расположение каналов : Front: L C R, Side: L R, LFE
Частота : 48,0 КГц
Частота кадров : 31,250 кадров/сек (1536 spf)
Метод сжатия : С потерями
Размер потока : 288 Мбайт (20%)
Выравнивание : Разделение по промежуткам
Продолжительность промежутка : 42 мс. (1,00 видеокадр)
Время предзагрузки промежутка : 500 мс.
скриншот  скриншот  скриншот  
pb.wtf



Скачать Дорожные войны через торрент http://pic1.kartinco.top/images/10/a2d9t.jpg Скачать фильм Дорожные войны через торрент бесплантно в хорошем качестве Описание: После апокалипсиса Земля истощена и оставшиеся в живых люди, образуют передвижныедорожные банды, вооруженные до зубов, чтобы ... 8.3 10 12
Info! Золотая раздача, скачанное не засчитывается.
Торрент: Зарегистрирован [2016-09-16 14:37] · скачан: 200 раз
Статус: T временная
Размер: 1.37 GB
Как cкачать? Как скачать Дорожные войны через торрент | qTorrent

% Раздел Тема Автор DL S | L
Фильмы без перевода [ 901 MB ] Дорожные войны / Road Wars [2015 DVDRip Оригинал] makarevich Скачать
1 | 0


Последний раз редактировалось: DJASFUL (2016-09-16 18:44), всего редактировалось 1 раз

28-11-2019 20:33  

Отключить всю рекламу на сайте

16-09-2016 16:46 Дорожные войны Скачать торрент  

16-09-2016 17:09 Дорожные войны Скачать торрент  

очень понравился скрин 00:10:34. Информативный.pb.wtf



16-09-2016 19:04 Дорожные войны Скачать торрент  

LokiStar писал(а):

очень понравился скрин 00:10:34. Информативный.

Там чтоооо... потную подмышку нам на оценку показали? )))))pb.wtf



20-09-2016 16:05 Дорожные войны Скачать торрент  

то как фильм то?)pb.wtf



    Дорогой пользователь! Огромная просьба, поблагодарите релизера, оцените раздачу и оставьте свои комментарий, если Вы скачали Дорожные войны через торрент бесплатно! Внесите свою лепту в развитие PiratBit!
    Комментировать посты могут только пользователи прошедшие не сложную регистрацию
    Показать сообщения:    

    Дорожные войны через торрент
    Скачать бесплатно Дорожные войны
    Дорожные войны скачать торрент
    Дорожные войны смотреть онлайн
    Cкачать фильм Дорожные войны бесплатно
    Дорожные войны скачать торрент в хорошем качестве
    Дорожные войны смотреть онлайн бесплатно в хорошем качестве


    Вы не можете начинать темы
    Вы не можете отвечать на сообщения
    Вы не можете редактировать свои сообщения
    Вы не можете удалять свои сообщения
    Вы не можете голосовать в опросах
    Вы не можете прикреплять файлы к сообщениям
    Вы можете скачивать файлы