Ссылка на приватное зеркало всего за 1$. Внимание количество ограничено!!!

OK

1+1

iTunes

мы

OK

1

WEB-DLRip

Джокер

Пифагор

Ведьмак / The Witcher сериал

Лицензия

ПШазам

ОК

Оно 2

iTunes

30
pack

Вам бонус

ВАЖНО

!!Акция!!

Alien_RageХит недели

RePack

Resident Evil 21

ИГРА 18+

pack

RePack

jed

!!Акция!!

Alien_Rage

RePack

fifa19

RePack

Assassins Creed: Odyssey

RePack

NEED FOR SPEED™ PAYBACK

4 сезон

9 сезон

Бесстыжие 9 сезон

Все сериалы

все сериалы на PB.wtf

RePack

FAR CRY 5
  

Улики / Evidence (Олатунде Осунсанми ) [2012, триллер, ужасы, BDRip-AVC от potroks] Dub [Лицензия] pb.wtf

Улики через торрент pb.wtf

Размер: 2.18 GB | Добавлен: 3 года 4 мес. назад | Торрент скачан:103 раза
Скачать  

16-09-2016 15:17 Улики Скачать торрент  

Улики / Evidence

Год выпуска: 2012
Страна: США / Bold Films, Marc Platt Productions
Жанр: триллер, ужасы
Продолжительность: 01:33:57
Перевод: Дубляж [R5]
Субтитры: русские (x2), английские (Full), английские (SDH)
Навигация по главам: есть
Режиссер: Олатунде Осунсанми
В ролях:

Стивен Мойер (Detective Reese), Амл Амин (Officer Jenson), Рада Митчелл (Detective Burquez), Торри ДеВито (Leann), Кэйтлин Стэйси (Rachel), Нолан Джерард Фанк (Tyler Morris), Дейл Дикки (Katrina Fleishman), Гарри Дж. Ленникс (Ben), Светлана Меткина (Vicki), Джон Хеймс Ньютон (Lead Cop), Крис Джай Алекс (Lead SWAT), Джеймс Райен (Tall Cop)
Описание: В автобусе, направлявшемся в Лас-Вегас, совершено жестокое убийство. На месте преступления - ни одного уцелевшего. Только несколько трупов и хаотичный набор мобильных телефонов, карманных видеокамер и других устройств, оставшихся от потерпевших. Детектив, которому поручено расследование, с помощью сохранившихся записей пытается восстановить цепь загадочных событий, приведших к трагедии.

Качество: BDRip-AVC
Формат: MKV
Видео: AVC, 1152x480 (2.40:1), 2491 kbps, 23,976 fps, 0,188 bpp
Аудио №1: AC3 / 5.1 / 48 kHz / 384 kbps / 16 bit | RUS
Аудио №2: AC3 / 5.1 / 48 kHz / 448 kbps / 16 bit | ENG

Код:

General
Unique ID                                : 190105281905929280005203931738163428127 (0x8F04F20C5880971DAE20B183489CBB1F)
Complete name                            : N:\Триллер\Uliki.2013.DUAL.BDRip.x264.-HELLYWOOD.mkv
Format                                   : Matroska
Format version                           : Version 4 / Version 2
File size                                : 2.18 GiB
Duration                                 : 1 h 33 min
Overall bit rate                         : 3 323 kb/s
Movie name                               : Evidence (2013)
Encoded date                             : UTC 2016-07-29 04:35:12
Writing application                      : mkvmerge v5.9.0 ('On The Loose') built on Dec 15 2012 16:39:58
Writing library                          : libebml v1.3.0 + libmatroska v1.4.0

Video
ID                                       : 1
Format                                   : AVC
Format/Info                              : Advanced Video Codec
Format profile                           : High@L4.1
Format settings, CABAC                   : Yes
Format settings, ReFrames                : 10 frames
Codec ID                                 : V_MPEG4/ISO/AVC
Duration                                 : 1 h 33 min
Bit rate                                 : 2 491 kb/s
Width                                    : 1 152 pixels
Height                                   : 480 pixels
Display aspect ratio                     : 2.40:1
Frame rate mode                          : Constant
Frame rate                               : 23.976 FPS
Color space                              : YUV
Chroma subsampling                       : 4:2:0
Bit depth                                : 8 bits
Scan type                                : Progressive
Bits/(Pixel*Frame)                       : 0.188
Stream size                              : 1.59 GiB (73%)
Title                                    : potroks
Writing library                          : x264 core 146 r2538 121396c
Encoding settings                        : cabac=1 / ref=10 / deblock=1:-2:-2 / analyse=0x3:0x113 / me=umh / subme=11 / psy=1 / psy_rd=1.03:0.05 / mixed_ref=1 / me_range=48 / chroma_me=1 / trellis=2 / 8x8dct=1 / cqm=0 / deadzone=21,11 / fast_pskip=0 / chroma_qp_offset=-3 / threads=9 / lookahead_threads=2 / sliced_threads=0 / nr=0 / decimate=0 / interlaced=0 / bluray_compat=0 / constrained_intra=0 / bframes=11 / b_pyramid=2 / b_adapt=2 / b_bias=0 / direct=3 / weightb=1 / open_gop=0 / weightp=2 / keyint=240 / keyint_min=23 / scenecut=40 / intra_refresh=0 / rc_lookahead=60 / rc=2pass / mbtree=0 / bitrate=2491 / ratetol=1.0 / qcomp=0.70 / qpmin=0 / qpmax=69 / qpstep=4 / cplxblur=20.0 / qblur=0.5 / vbv_maxrate=14000 / vbv_bufsize=14000 / nal_hrd=none / filler=0 / ip_ratio=1.40 / pb_ratio=1.30 / aq=1:0.80
Language                                 : English
Default                                  : Yes
Forced                                   : No

Audio #1
ID                                       : 2
Format                                   : AC-3
Format/Info                              : Audio Coding 3
Mode extension                           : CM (complete main)
Format settings, Endianness              : Big
Codec ID                                 : A_AC3
Duration                                 : 1 h 33 min
Bit rate mode                            : Constant
Bit rate                                 : 384 kb/s
Channel(s)                               : 6 channels
Channel positions                        : Front: L C R, Side: L R, LFE
Sampling rate                            : 48.0 kHz
Frame rate                               : 31.250 FPS (1536 spf)
Compression mode                         : Lossy
Stream size                              : 258 MiB (12%)
Title                                    : Dub | DD 5.1 @ 384 kbps - R5
Language                                 : Russian
Default                                  : Yes
Forced                                   : No

Audio #2
ID                                       : 3
Format                                   : AC-3
Format/Info                              : Audio Coding 3
Mode extension                           : CM (complete main)
Format settings, Endianness              : Big
Codec ID                                 : A_AC3
Duration                                 : 1 h 33 min
Bit rate mode                            : Constant
Bit rate                                 : 448 kb/s
Channel(s)                               : 6 channels
Channel positions                        : Front: L C R, Side: L R, LFE
Sampling rate                            : 48.0 kHz
Frame rate                               : 31.250 FPS (1536 spf)
Compression mode                         : Lossy
Stream size                              : 301 MiB (13%)
Title                                    : Original | DD 5.1 @ 448 kbps
Language                                 : English
Default                                  : No
Forced                                   : No

Text #1
ID                                       : 4
Format                                   : UTF-8
Codec ID                                 : S_TEXT/UTF8
Codec ID/Info                            : UTF-8 Plain Text
Title                                    : Дэн 107miller.
Language                                 : Russian
Default                                  : No
Forced                                   : No

Text #2
ID                                       : 5
Format                                   : UTF-8
Codec ID                                 : S_TEXT/UTF8
Codec ID/Info                            : UTF-8 Plain Text
Language                                 : Russian
Default                                  : No
Forced                                   : No

Text #3
ID                                       : 6
Format                                   : UTF-8
Codec ID                                 : S_TEXT/UTF8
Codec ID/Info                            : UTF-8 Plain Text
Title                                    : Full
Language                                 : English
Default                                  : No
Forced                                   : No

Text #4
ID                                       : 7
Format                                   : UTF-8
Codec ID                                 : S_TEXT/UTF8
Codec ID/Info                            : UTF-8 Plain Text
Title                                    : SDH
Language                                 : English
Default                                  : No
Forced                                   : No

Menu
00:00:00.000                             : en:Chapter 01
00:07:52.471                             : en:Chapter 02
00:14:26.365                             : en:Chapter 03
00:23:23.402                             : en:Chapter 04
00:31:06.864                             : en:Chapter 05
00:40:30.970                             : en:Chapter 06
00:47:58.792                             : en:Chapter 07
00:54:38.858                             : en:Chapter 08
01:01:29.268                             : en:Chapter 09
01:07:55.738                             : en:Chapter 10
01:19:25.218                             : en:Chapter 11
01:28:39.314                             : en:Chapter 12

pb.wtf



Скачать Улики через торрент http://i78.fastpic.ru/big/2016/0916/cf/17ef532aa9d4eb31685e79d9f25a75cf.png Скачать фильм Улики через торрент бесплантно в хорошем качестве Описание: В автобусе, направлявшемся в Лас-Вегас, совершено жестокое убийство. На месте преступления - ни одного уцелевшего. Только ... 9.3 10 7
Info! Золотая раздача, скачанное не засчитывается.
Торрент: Зарегистрирован [2016-09-16 15:17] · скачан: 103 раз
Статус: √ проверено
Размер: 2.18 GB
Как cкачать? Как скачать Улики через торрент | qTorrent

% Раздел Тема Автор DL S | L
Фильмы [HD 720p, 1080p] (Хороший звук DUB, MVO) [ 12.57 GB ] Тело как улика / Body Of Evidence [1993 BDRip 1080p by msltel] 2 x MVO 3 x DVO AVO msltel Скачать
1 | 0
Фильмы [HD 720p, 1080p] (Хороший звук DUB, MVO) [ 4.85 GB ] Тело как улика / Body Of Evidence [1993 BDRip 720p by msltel] 2 x MVO 3 x DVO AVO msltel Скачать
1 | 0
Фильмы (Blu-ray, BD-Remux, HDDVD) [ 18.23 GB ] Улики / Evidence [2013 BDRemux ()[] Ворон Скачать
1 | 0
Фильмы 2013 [DVDrip, WEB-DLRip, HDrip] [ 1.44 GB ] Улики / Evidence [2013 BDRip] DUB + Original + Subs Liloo_Foofyga Скачать
1 | 0
Фильмы (DVD фильмы) [ 6.31 GB ] Улики / Evidence [2013 DVD9] R5 voovaz Скачать
1 | 0
Фильмы 2013 [DVDrip, WEB-DLRip, HDrip] [ 1.37 GB ] Улики / Evidence [2013 HDRip ] Seedtank Скачать
1 | 0
Фильмы [HD 720p, 1080p] (Хороший звук DUB, MVO) [ 4.65 GB ] Улики / Evidence [2013 BDRip 720p [] Ворон Скачать
1 | 0

28-11-2019 20:33  

Отключить всю рекламу на сайте

    Дорогой пользователь! Огромная просьба, поблагодарите релизера, оцените раздачу и оставьте свои комментарий, если Вы скачали Улики через торрент бесплатно! Внесите свою лепту в развитие PiratBit!
    Комментировать посты могут только пользователи прошедшие не сложную регистрацию
    Показать сообщения:    

    Улики через торрент
    Скачать бесплатно Улики
    Улики скачать торрент
    Улики смотреть онлайн
    Cкачать фильм Улики бесплатно
    Улики скачать торрент в хорошем качестве
    Улики смотреть онлайн бесплатно в хорошем качестве


    Вы не можете начинать темы
    Вы не можете отвечать на сообщения
    Вы не можете редактировать свои сообщения
    Вы не можете удалять свои сообщения
    Вы не можете голосовать в опросах
    Вы не можете прикреплять файлы к сообщениям
    Вы можете скачивать файлы