Ссылка на приватное зеркало нашего сайта всего за 1$. Внимание количество ограничено!!!

2 сезон

iTunes

1 сезон

1

2 сезон

2 сезон

iTunes

1 сезон

RePack

30

Ultimate

ВАЖНО

ИГРА 18+

pack

RePack

MK11
pack

Забери бонус

RePack

jed

!!Акция!!

Alien_Rage

RePack

fifa19

RePack

Assassins Creed: Odyssey

RePack

NEED FOR SPEED™ PAYBACK

4 сезон

9 сезон

Бесстыжие 9 сезон

Все сериалы

все сериалы на PB.wtf

RePack

FAR CRY 5
  

Полтора шпиона / Central Intelligence (Роусон Маршалл Тёрбер ) [2016, комедия, криминал, BDRip, Дублированный / iTunes] pb.wtf

Полтора шпиона через торрент pb.wtf

Размер: 748 MB | Добавлен: 4 года 2 мес. назад | Торрент скачан:115 раз
Скачать  

16-09-2016 16:23 Полтора шпиона Скачать торрент  

Полтора шпиона / Central Intelligence
Год выпуска: 2016
Страна: США
Жанр: Комедия, криминал
Продолжительность: 01:47:37
Перевод: Дублированный | iTunes
Дополнительно Рекламы нет
Режиссер: Роусон Маршалл Тёрбер
В ролях: Дуэйн Джонсон, Кевин Харт, Эми Райан, Даниэль Николет, Джейсон Бейтмен, Аарон Пол, Райан Хансен, Тим Гриффин, Тимоти Джон Смит
Описание:
От лайка в соцсети до спасения мира - один шаг. Сегодня ты френдишь бывшего одноклассника, а завтра - он тащит тебя под пули. Кто ж знал, что заядлый любитель пончиков превратится в похожего на скалу супершпиона.
Рейтинг:

Качество: BDRip
Формат: AVI
Видео: XviD, 688x288, 23.976 fps, 837 kbps
Аудио: MP3, 2 ch, 48 kHz, 128 kbps

General
Complete name : C:\FILMS\Central.Intelligence.2016.BDRip.745MB.avi
Format : AVI
Format/Info : Audio Video Interleave
File size : 748 MiB
Duration : 1h 47mn
Overall bit rate : 971 Kbps

Video
ID : 0
Format : MPEG-4 Visual
Format profile : Advanced Simple@L5
Format settings, BVOP : 1
Format settings, QPel : No
Format settings, GMC : No warppoints
Format settings, Matrix : Custom
Codec ID : XVID
Codec ID/Hint : XviD
Duration : 1h 47mn
Bit rate : 838 Kbps
Width : 688 pixels
Height : 288 pixels
Display aspect ratio : 2.40:1
Frame rate : 23.976 (24000/1001) fps
Color space : YUV
Chroma subsampling : 4:2:0
Bit depth : 8 bits
Scan type : Progressive
Compression mode : Lossy
Bits/(Pixel*Frame) : 0.176
Stream size : 645 MiB (86%)
Writing library : XviD 73

Audio
ID : 1
Format : MPEG Audio
Format version : Version 1
Format profile : Layer 3
Mode : Joint stereo
Mode extension : MS Stereo
Codec ID : 55
Codec ID/Hint : MP3
Duration : 1h 47mn
Bit rate mode : Constant
Bit rate : 128 Kbps
Channel(s) : 2 channels
Sampling rate : 48.0 KHz
Compression mode : Lossy
Stream size : 98.4 MiB (13%)
Alignment : Aligned on interleaves
Interleave, duration : 167 ms (4.00 video frames)
Interleave, preload duratio : 216 ms
Title : iTunes
Writing library : LAME3.99r
Encoding settings : -m j -V 4 -q 2 -lowpass 17 -b 128
pb.wtf



Скачать Полтора шпиона через торрент http://i85.fastpic.ru/big/2016/0916/82/8fb95e22ed812ebc09ec564910470e82.png Скачать фильм Полтора шпиона через торрент бесплантно в хорошем качестве Описание: От лайка в соцсети до спасения мира - один шаг. Сегодня ты френдишь бывшего одноклассника, а завтра - он тащит тебя под пули. Кто ... 10 10 5
Info! Золотая раздача, скачанное не засчитывается.
Торрент: Зарегистрирован [2016-09-16 16:23] · скачан: 115 раз
Статус: √ проверено
Размер: 748 MB
Как cкачать? Как скачать Полтора шпиона через торрент | qTorrent

% Раздел Тема Автор DL S | L
Ultra HD (UHD: 2K, 4K, 8K) — видео сверхвысокой чёткости [ 41.15 GB ] Полтора шпиона / Central Intelligence [2016 UHD BDRemux 2160p] DUB [ Blu-Ray CEE] bober100 Скачать
1 | 0
Фильмы 2016 [DVDrip, WEB-DLRip, HDrip] (DUB, MVO) [ 1.46 GB ] Полтора шпиона / Central Intelligence [2016 BDRip] Twi7ter Скачать
2 | 0
Фильмы (Blu-ray, BD-Remux, HDDVD) [ 32.15 GB ] Полтора шпиона / Central Intelligence [2016 Blu-Ray CEE] Russian Mafia Скачать
1 | 1
Фильмы [HD 720p, 1080p] (Хороший звук DUB, MVO) [ 9.22 GB ] Полтора шпиона / Central Intelligence [2016 BDRip 1080p] - [] -Lexx- Скачать
2 | 0
Фильмы (Blu-ray, BD-Remux, HDDVD) [ 22.81 GB ] Полтора шпиона / Central Intelligence [2016 BDRemux 1080p от ExKinoRay] Russian Mafia Скачать
1 | 0
R.G. Resident & PiratVoice - Фильмы, Видео [ 1.46 GB ] Полтора шпиона / Central Intelligence [2016 WEB-DLRip-AVC ] White Smoke Скачать
2 | 0
Фильмы (WEB-DL 720p, 1080p) [ 3.71 GB ] Полтора шпиона / Central Intelligence [2016 WEB-DL 1080p ] White Smoke Скачать
1 | 0


Последний раз редактировалось: неАлексей (2016-09-16 16:54), всего редактировалось 1 раз

28-11-2019 20:33  

Отключить всю рекламу на сайте

16-09-2016 16:25 Полтора шпиона Скачать торрент  

Скриншоты будут чуть позже, на данный момент не работает фотохостинг :(pb.wtf



16-09-2016 16:30 Полтора шпиона Скачать торрент  

16-09-2016 16:43 Полтора шпиона Скачать торрент  

Ворон писал(а):

неАлексей,
  
очень долго открывается ссылка, а потом сообщение, что либо отключен javascript, либо не установлен flash player. ( Пробовал и в хроме, и опере, в фоксе)
Но javascript включен и flash установлен, что делать?pb.wtf



16-09-2016 16:43 Полтора шпиона Скачать торрент  

https://get.adobe.com/ru/flashplayer/
обнови и все будет гуд.pb.wtf



16-09-2016 16:59 Полтора шпиона Скачать торрент  

Ворон писал(а):

https://get.adobe.com/ru/flashplayer/
обнови и все будет гуд.

Обновил, в принципе ничего не изменилось
Пока залил скрины с помощью Flash_Releasepb.wtf



    Дорогой пользователь! Огромная просьба, поблагодарите релизера, оцените раздачу и оставьте свои комментарий, если Вы скачали Полтора шпиона через торрент бесплатно! Внесите свою лепту в развитие PiratBit!
    Комментировать посты могут только пользователи прошедшие не сложную регистрацию
    Показать сообщения:    

    Полтора шпиона через торрент
    Скачать бесплатно Полтора шпиона
    Полтора шпиона скачать торрент
    Полтора шпиона смотреть онлайн
    Cкачать фильм Полтора шпиона бесплатно
    Полтора шпиона скачать торрент в хорошем качестве
    Полтора шпиона смотреть онлайн бесплатно в хорошем качестве


    Вы не можете начинать темы
    Вы не можете отвечать на сообщения
    Вы не можете редактировать свои сообщения
    Вы не можете удалять свои сообщения
    Вы не можете голосовать в опросах
    Вы не можете прикреплять файлы к сообщениям
    Вы можете скачивать файлы