Ссылка на приватное зеркало нашего сайта всего за 1$. Внимание количество ограничено!!!

2 сезон

iTunes

1 сезон

1

iTunes

iTunes

iTunes

1 сезон

RePack

30

ИГРА 18+

pack

ВАЖНО

!!Акция!!

Alien_RageХит недели

RePack

MK11
pack

Забери бонус

RePack

jed

!!Акция!!

Alien_Rage

RePack

fifa19

RePack

Assassins Creed: Odyssey

RePack

NEED FOR SPEED™ PAYBACK

4 сезон

9 сезон

Бесстыжие 9 сезон

Все сериалы

все сериалы на PB.wtf

RePack

FAR CRY 5
  

Разрушение / Demolition (Жан-Марк Валле) [2015, драма, BDRip 1080p от еnvy / NNNB] DUB / iTunes pb.wtf

Разрушение через торрент pb.wtf

Раздают: 7 [ 0 KB/s ]
Размер: 6.75 GB | Добавлен: 4 года 1 мес. назад | Торрент скачан:363 раза
Скачать  

16-09-2016 17:20 Разрушение Скачать торрент  

Информация о фильме

Русское название: Разрушение
Оригинальное название: Demolition
Год выхода: 2015
Жанр: драма
Режиссер: Жан-Марк Валле
Выпущено: США
Продолжительность: 01:40:53
Перевод: Дублированный (iTunes)
В ролях: Джейк Джилленхол, Наоми Уоттс, Крис Купер, Джуда Льюис, С.Дж. Уилсон, Полли Дрэйпер, Мэлаки Клири, Дебра Монк, Хезер Линд, Уасс М. Стивенс, Блэйр Брукс, Бен Коул
Сюжет фильма

Когда Дэвис узнал, что его жена умерла, он захотел купить шоколадные конфеты в торговом автомате, но пачка застряла. Пытаясь выяснить, почему он ничего не чувствует по поводу смерти жены, Дэвис начинает писать длинные письма в обслуживающую торговые автоматы фирму. А в письмах он рассказывает о себе и об отношениях с погибшей женой. Скоро ему отвечает Карен, менеджер компании. Попутно Дэвис понимает, что ему совершенно необходимо разобрать холодильник, разломать кабинку туалета, рабочий компьютер и разрушить собственный дом.


Файл

Качество: BDRip 1080p (исходник Blu-Ray)
Формат: MKV
Видео: 1920x818, 8743 Кбит/сек, 23,976 кадр/сек, AVC, x264, High@L4.1, 2.35:1, 0.232 Бит/[Пиксели*Кадры]
Аудио 1: AC-3, 384 Кбит/сек, 6 канала(ов), 48,0 КГц - Дублированный / Русский
Аудио 2: AC-3, 448 Кбит/сек, 6 канала(ов), 48,0 КГц - Оригинал / Английский
Субтитры: Английские | Полные
Форсированные субтитры: Нет
Чаптеры (Главы): Есть






Автор Рипа: Группа:


Format : Matroska
Format version : Version 2
File size : 6.75 GiB
Duration : 1h 40mn
Overall bit rate : 9 581 Kbps
Movie name : Demolition.(2015).BDRip.1080p.[envy]
Encoded date : UTC 2016-09-16 16:56:17
Writing application : mkvmerge v5.8.0 ('No Sleep / Pillow') built on Sep 2 2012 15:37:04
Writing library : libebml v1.2.3 + libmatroska v1.3.0

Video
ID : 1
Format : AVC
Format/Info : Advanced Video Codec
Format profile : High@L4.1
Format settings, CABAC : Yes
Format settings, ReFrames : 5 frames
Codec ID : V_MPEG4/ISO/AVC
Duration : 1h 40mn
Bit rate : 8 743 Kbps
Width : 1 920 pixels
Height : 818 pixels
Display aspect ratio : 2.35:1
Frame rate mode : Constant
Frame rate : 23.976 (24000/1001) fps
Color space : YUV
Chroma subsampling : 4:2:0
Bit depth : 8 bits
Scan type : Progressive
Bits/(Pixel*Frame) : 0.232
Stream size : 6.03 GiB (89%)
Title : Demolition.(2015).BDRip.1080p.[envy]
Writing library : x264 core 148 r2705 3f5ed56
Encoding settings : cabac=1 / ref=5 / deblock=1:-3:-3 / analyse=0x3:0x113 / me=umh / subme=11 / psy=1 / psy_rd=1.00:0.00 / mixed_ref=1 / me_range=32 / chroma_me=1 / trellis=2 / 8x8dct=1 / cqm=0 / deadzone=21,11 / fast_pskip=0 / chroma_qp_offset=-2 / threads=12 / lookahead_threads=2 / sliced_threads=0 / nr=0 / decimate=1 / interlaced=0 / bluray_compat=0 / constrained_intra=0 / bframes=7 / b_pyramid=2 / b_adapt=2 / b_bias=0 / direct=3 / weightb=1 / open_gop=0 / weightp=2 / keyint=240 / keyint_min=23 / scenecut=40 / intra_refresh=0 / rc=2pass / mbtree=0 / bitrate=8743 / ratetol=2.0 / qcomp=0.60 / qpmin=0 / qpmax=69 / qpstep=4 / cplxblur=20.0 / qblur=0.5 / ip_ratio=1.40 / pb_ratio=1.30 / aq=2:0.80
Language : English
Default : Yes
Forced : No

Audio #1
ID : 2
Format : AC-3
Format/Info : Audio Coding 3
Mode extension : CM (complete main)
Format settings, Endianness : Big
Codec ID : A_AC3
Duration : 1h 40mn
Bit rate mode : Constant
Bit rate : 384 Kbps
Channel(s) : 6 channels
Channel positions : Front: L C R, Side: L R, LFE
Sampling rate : 48.0 KHz
Frame rate : 31.250 fps (1536 spf)
Compression mode : Lossy
Stream size : 277 MiB (4%)
Title : Dub
Language : Russian
Default : Yes
Forced : No

Audio #2
ID : 3
Format : AC-3
Format/Info : Audio Coding 3
Mode extension : CM (complete main)
Format settings, Endianness : Big
Codec ID : A_AC3
Duration : 1h 40mn
Bit rate mode : Constant
Bit rate : 448 Kbps
Channel(s) : 6 channels
Channel positions : Front: L C R, Side: L R, LFE
Sampling rate : 48.0 KHz
Frame rate : 31.250 fps (1536 spf)
Compression mode : Lossy
Stream size : 323 MiB (5%)
Title : Eng
Language : English
Default : No
Forced : No

Text
ID : 4
Format : UTF-8
Codec ID : S_TEXT/UTF8
Codec ID/Info : UTF-8 Plain Text
Title : Eng full
Language : English
Default : No
Forced : No

Menu
00:00:00.000 : :00:00:00.000
00:03:09.815 : :00:03:09.815
00:07:28.281 : :00:07:28.281
00:11:11.671 : :00:11:11.671
00:15:55.997 : :00:15:55.997
00:19:23.037 : :00:19:23.037
00:23:14.768 : :00:23:14.768
00:28:21.325 : :00:28:21.325
00:32:39.040 : :00:32:39.040
00:37:16.693 : :00:37:16.693
00:42:31.382 : :00:42:31.382
00:47:09.952 : :00:47:09.952
00:51:39.805 : :00:51:39.805
00:56:23.005 : :00:56:23.005
01:00:27.290 : :01:00:27.290
01:04:41.878 : :01:04:41.878
01:09:10.188 : :01:09:10.188
01:14:08.444 : :01:14:08.444
01:18:14.523 : :01:18:14.523
01:22:22.354 : :01:22:22.354
01:26:28.475 : :01:26:28.475
01:29:15.475 : :01:29:15.475
01:33:43.618 : :01:33:43.618
01:36:41.838 : :01:36:41.838

pb.wtf



Скачать Разрушение через торрент http://img10.lostpic.net/2016/09/16/b1c2a25b822ee54c78fcd73969879fa3.png Скачать фильм Разрушение через торрент бесплантно в хорошем качестве В ролях: Джейк Джилленхол, Наоми Уоттс, Крис Купер, Джуда Льюис, С.Дж. Уилсон, Полли Дрэйпер, Мэлаки Клири, Дебра Монк, Хезер Линд, Уасс М. ... 10 10 8
Info! Золотая раздача, скачанное не засчитывается.
Торрент: Зарегистрирован [2016-09-16 17:20] · скачан: 363 раз
Статус: √ проверено
Размер: 6.75 GB
Как cкачать? Как скачать Разрушение через торрент | qTorrent

% Раздел Тема Автор DL S | L
Фильмы 2015 [DVDrip, WEB-DLRip, HDrip] [ 1.41 GB ] Разрушение / Demolition [2015 BDRip-AVC от sokol_ok] Dub sokol_ok Скачать
2 | 0
Фильмы (Blu-ray, BD-Remux, HDDVD) [ 23.29 GB ] Разрушение / Demolition [2015 Blu-Ray Remux] [1080p] killermax2013 Скачать
1 | 0
Фильмы 2015 [DVDrip, WEB-DLRip, HDrip] [ 2.14 GB ] Разрушение / Demolition [2015 BDRip-AVC от sokol_ok] Dub sokol_ok Скачать
3 | 0
Фильмы 2015 [DVDrip, WEB-DLRip, HDrip] [ 2.04 GB ] Разрушение / Demolition [2015 HDRip] killermax2013 Скачать
1 | 0

28-11-2019 20:33  

Отключить всю рекламу на сайте

17-09-2016 02:24 Разрушение Скачать торрент  

x264 [info]: frame I:1128 Avg QP:14.61 size:244554
x264 [info]: frame P:32037 Avg QP:17.08 size: 83977
x264 [info]: frame B:111963 Avg QP:19.14 size: 32615pb.wtf



18-09-2016 19:36 Разрушение Скачать торрент  

норм фильм!pb.wtf



    Дорогой пользователь! Огромная просьба, поблагодарите релизера, оцените раздачу и оставьте свои комментарий, если Вы скачали Разрушение через торрент бесплатно! Внесите свою лепту в развитие PiratBit!
    Комментировать посты могут только пользователи прошедшие не сложную регистрацию
    Показать сообщения:    

    Разрушение через торрент
    Скачать бесплатно Разрушение
    Разрушение скачать торрент
    Разрушение смотреть онлайн
    Cкачать фильм Разрушение бесплатно
    Разрушение скачать торрент в хорошем качестве
    Разрушение смотреть онлайн бесплатно в хорошем качестве


    Вы не можете начинать темы
    Вы не можете отвечать на сообщения
    Вы не можете редактировать свои сообщения
    Вы не можете удалять свои сообщения
    Вы не можете голосовать в опросах
    Вы не можете прикреплять файлы к сообщениям
    Вы можете скачивать файлы