Ссылка на приватное зеркало нашего сайта всего за 1$. Внимание количество ограничено!!!

2 сезон

iTunes

1 сезон

1

2 сезон

2 сезон

iTunes

1 сезон

RePack

30

Новинка

ВАЖНО

ИГРА 18+

pack

RePack

MK11
pack

Забери бонус

RePack

jed

!!Акция!!

Alien_Rage

RePack

fifa19

RePack

Assassins Creed: Odyssey

RePack

NEED FOR SPEED™ PAYBACK

4 сезон

9 сезон

Бесстыжие 9 сезон

Все сериалы

все сериалы на PB.wtf

RePack

FAR CRY 5
  

Полтора шпиона / Central Intelligence (Роусон Маршалл Тёрбер ) [2016, боевик, комедия, криминал, BD Remux] [Оригинал] pb.wtf

Полтора шпиона через торрент pb.wtf

Размер: 22.15 GB | Добавлен: 4 года 2 мес. назад | Торрент скачан:3 раза
Скачать  

16-09-2016 20:38 Полтора шпиона Скачать торрент  

Полтора шпиона / Central Intelligence

Год выпуска: 2016
Страна: США
Жанр: боевик, комедия, криминал

Продолжительность: 01:47:38
Перевод: Отсутствует [Оригинал]
Субтитры: английский, французский, испанский
Режиссер: Роусон Маршалл Тёрбер
В ролях: Дуэйн Джонсон (Bob Stone), Кевин Харт (Calvin Joyner), Эми Райан (Agent Pamela Harris), Даниэль Николет (Maggie), Джейсон Бейтман (Trevor), Аарон Пол (Phil), Райан Хансен (Steve), Тим Гриффин (Agent Stan Mitchell), Тимоти Джон Смит (Agent Nick Cooper), Сион Келепи (Young Robbie), Дилан Бойяк (Trevor - 17 Years Old), Томас Кречман (The Buyer)
Описание:
От лайка в соцсети до спасения мира - один шаг. Сегодня ты френдишь бывшего одноклассника, а завтра - он тащит тебя под пули. Кто ж знал, что заядлый любитель пончиков превратится в похожего на скалу супершпиона.
Рейтинг:

MPAA: PG-13 - Детям до 13 лет просмотр не желателен
Качество: BD Remux
Формат: MKV
Видео: AVC, 1920x1080 (16:9), 25404 kbps, 23,976 fps, 0,511 bpp
Аудио №1: английский / DTS-HD / 5.1 / 48 kHz / 3711 kbps / 24 bit (Core: 5.1 / 48 kHz / 1509 kbps / 24 bit)
Аудио №2: английский / AC3 / 2.0 / 48 kHz / 192 kbps /
Навигация по главам: есть

General
Unique ID Central.Intelligence.2016.Theatrical.Cut.BluRay.1080p.DTS-HD.MA.5.1.AVC.REMUX-FraMeSToR\Central.Intelligence.2016.Theatrical.Cut.BluRay.1080p.DTS-HD.MA.5.1.AVC.REMUX-FraMeSToR.mkv
Format : Matroska
Format version : Version 4 / Version 2
File size : 22.1 GiB
Duration : 1 h 47 min
Overall bit rate mode : Variable
Overall bit rate : 29.5 Mb/s
Movie name : Central Intelligence Theatrical Cut
Encoded date : UTC 2016-09-16 05:04:19
Writing application : mkvmerge v9.4.2 ('So High') 64bit
Writing library : libebml v1.3.4 + libmatroska v1.4.5

Video
ID : 1
Format : AVC
Format/Info : Advanced Video Codec
Format profile : High@L4.1
Format settings, CABAC : Yes
Format settings, ReFrames : 2 frames
Codec ID : V_MPEG4/ISO/AVC
Duration : 1 h 47 min
Bit rate mode : Variable
Bit rate : 25.4 Mb/s
Width : 1 920 pixels
Height : 1 080 pixels
Display aspect ratio : 16:9
Frame rate mode : Constant
Frame rate : 23.976 (23976/1000) FPS
Original frame rate : 23.976 (24000/1001) FPS
Color space : YUV
Chroma subsampling : 4:2:0
Bit depth : 8 bits
Scan type : Progressive
Bits/(Pixel*Frame) : 0.511
Stream size : 19.1 GiB (86%)
Default : Yes
Forced : No

Audio #1
ID : 2
Format : DTS
Format/Info : Digital Theater Systems
Format profile : MA / Core
Mode : 16
Format settings, Endianness : Big
Codec ID : A_DTS
Duration : 1 h 47 min
Bit rate mode : Variable / Constant
Bit rate : 3 711 kb/s / 1 509 kb/s
Channel(s) : 6 channels
Channel positions : Front: L C R, Side: L R, LFE
Sampling rate : 48.0 kHz
Frame rate : 93.750 FPS (512 spf)
Bit depth : 24 bits
Compression mode : Lossless / Lossy
Stream size : 2.79 GiB (13%)
Title : DTS-HD MA 5.1
Language : English
Default : Yes
Forced : No

Audio #2
ID : 3
Format : AC-3
Format/Info : Audio Coding 3
Format profile : Dolby Digital
Mode extension : CM (complete main)
Format settings, Endianness : Big
Codec ID : A_AC3
Duration : 1 h 47 min
Bit rate mode : Constant
Bit rate : 192 kb/s
Channel(s) : 2 channels
Channel positions : Front: L R
Sampling rate : 48.0 kHz
Frame rate : 31.250 FPS (1536 spf)
Compression mode : Lossy
Stream size : 148 MiB (1%)
Title : Commentary by Rawson Marshall Thurber/Mike Sale
Language : English
Default : No
Forced : No

Text #1
ID : 4
Format : PGS
Codec ID : S_HDMV/PGS
Codec ID/Info : Picture based subtitle format used on BDs/HD-DVDs
Duration : 1 h 47 min
Bit rate : 55.7 kb/s
Count of elements : 4582
Stream size : 42.8 MiB (0%)
Title : English (SDH)
Language : English
Default : Yes
Forced : No

Text #2
ID : 5
Format : PGS
Codec ID : S_HDMV/PGS
Codec ID/Info : Picture based subtitle format used on BDs/HD-DVDs
Duration : 1 h 46 min
Bit rate : 41.4 kb/s
Count of elements : 4262
Stream size : 31.5 MiB (0%)
Title : French
Language : French
Default : No
Forced : No

Text #3
ID : 6
Format : PGS
Codec ID : S_HDMV/PGS
Codec ID/Info : Picture based subtitle format used on BDs/HD-DVDs
Duration : 1 h 46 min
Bit rate : 45.9 kb/s
Count of elements : 4174
Stream size : 35.0 MiB (0%)
Title : Spanish (Latin American)
Language : Spanish
Default : No
Forced : No

Menu
00:00:00.000 : en:Chapter 1
00:09:12.051 : en:Chapter 2
00:20:11.752 : en:Chapter 3
00:30:31.079 : en:Chapter 4
00:43:21.765 : en:Chapter 5
00:52:42.492 : en:Chapter 6
00:58:09.861 : en:Chapter 7
01:10:12.457 : en:Chapter 8
01:18:36.753 : en:Chapter 9
01:28:56.288 : en:Chapter 10
01:39:32.257 : en:Chapter 11
Скриншоты:
pb.wtf



Скачать Полтора шпиона через торрент http://i1.imageban.ru/out/2016/09/16/82a05f5b75abff8484deb59eb35091be.jpg Скачать фильм Полтора шпиона через торрент бесплантно в хорошем качестве Описание: От лайка в соцсети до спасения мира - один шаг. Сегодня ты френдишь бывшего одноклассника, а завтра - он тащит тебя под пули. Кто ... 10 10 1
Торрент: Зарегистрирован [2016-09-16 20:38] · скачан: 3 раз
Статус: √ проверено
Размер: 22.15 GB
Как cкачать? Как скачать Полтора шпиона через торрент | qTorrent

% Раздел Тема Автор DL S | L
Ultra HD (UHD: 2K, 4K, 8K) — видео сверхвысокой чёткости [ 41.15 GB ] Полтора шпиона / Central Intelligence [2016 UHD BDRemux 2160p] DUB [ Blu-Ray CEE] bober100 Скачать
1 | 0
Фильмы 2016 [DVDrip, WEB-DLRip, HDrip] (DUB, MVO) [ 1.46 GB ] Полтора шпиона / Central Intelligence [2016 BDRip] Twi7ter Скачать
2 | 0
Фильмы (Blu-ray, BD-Remux, HDDVD) [ 32.15 GB ] Полтора шпиона / Central Intelligence [2016 Blu-Ray CEE] Russian Mafia Скачать
1 | 1
Фильмы [HD 720p, 1080p] (Хороший звук DUB, MVO) [ 9.22 GB ] Полтора шпиона / Central Intelligence [2016 BDRip 1080p] - [] -Lexx- Скачать
2 | 0
Фильмы (Blu-ray, BD-Remux, HDDVD) [ 22.81 GB ] Полтора шпиона / Central Intelligence [2016 BDRemux 1080p от ExKinoRay] Russian Mafia Скачать
1 | 0
R.G. Resident & PiratVoice - Фильмы, Видео [ 1.46 GB ] Полтора шпиона / Central Intelligence [2016 WEB-DLRip-AVC ] White Smoke Скачать
2 | 0
Фильмы (WEB-DL 720p, 1080p) [ 3.71 GB ] Полтора шпиона / Central Intelligence [2016 WEB-DL 1080p ] White Smoke Скачать
1 | 0

28-11-2019 20:33  

Отключить всю рекламу на сайте

    Дорогой пользователь! Огромная просьба, поблагодарите релизера, оцените раздачу и оставьте свои комментарий, если Вы скачали Полтора шпиона через торрент бесплатно! Внесите свою лепту в развитие PiratBit!
    Комментировать посты могут только пользователи прошедшие не сложную регистрацию
    Показать сообщения:    

    Полтора шпиона через торрент
    Скачать бесплатно Полтора шпиона
    Полтора шпиона скачать торрент
    Полтора шпиона смотреть онлайн
    Cкачать фильм Полтора шпиона бесплатно
    Полтора шпиона скачать торрент в хорошем качестве
    Полтора шпиона смотреть онлайн бесплатно в хорошем качестве


    Вы не можете начинать темы
    Вы не можете отвечать на сообщения
    Вы не можете редактировать свои сообщения
    Вы не можете удалять свои сообщения
    Вы не можете голосовать в опросах
    Вы не можете прикреплять файлы к сообщениям
    Вы можете скачивать файлы