Ссылка на приватное зеркало всего за 1$. Внимание количество ограничено!!!

iTunes

iTunes

iTunes

1

iTunes

iTunes

iTunes

iTunes

iTunes

30
pack

$ от Little Big

ВАЖНО

!!Акция!!

Alien_RageХит недели

RePack

Resident Evil 21

ИГРА 18+

pack

RePack

jed

!!Акция!!

Alien_Rage

RePack

fifa19

RePack

Assassins Creed: Odyssey

RePack

NEED FOR SPEED™ PAYBACK

4 сезон

9 сезон

Бесстыжие 9 сезон

Все сериалы

все сериалы на PB.wtf

RePack

FAR CRY 5
  

Свадебный угар / Mike and Dave Need Wedding Dates (Джейк Зиманский / Jake Szymanski) [2016, США, мелодрама, комедия, приключения, WEB-DL 1080p] Дубляж - [Лицензия / iTunes] pb.wtf

Свадебный угар через торрент pb.wtf

Размер: 3.4 GB | Добавлен: 3 года 9 мес. назад | Торрент скачан:1113 раз
Скачать  

17-09-2016 00:34 Свадебный угар Скачать торрент  

Свадебный угар / Mike and Dave Need Wedding Dates
«Им были нужны горячие даты. Они получили горячие беспорядки»


  • Год выпуска: 2016
  • Страна: США
  • Жанр: мелодрама, комедия, приключения

  • Продолжительность: 01:38:49
  • Перевод: Дубляж - [Лицензия / iTunes]
  • Режиссер: Джейк Зиманский / Jake Szymanski
  • В ролях:

    Зак Эфрон (Dave Stangle), Адам Дивайн (Mike Stangle), Анна Кендрик (Alice), Обри Плаза (Tatiana), Стивен Рут (Burt), Стефани Фэраси (Rosie), Стефани Бирд (Jeanie Stangle), Сэм Ричардсон (Eric), Элис Веттерлунд (Cousin Terry), Лавелл Кроуфорд (Keith), Мэри Холлэнд (Becky), Кумэйл Нанджиани (Keanu)


  • Братья-тусовщики Майк и Дэйв дают в интернете объявление о поиске пар, чтобы отправиться на свадьбу сестры на Гавайях. Они надеются на дикий отрыв, но выбранный ими дуэт девушек оказывается совершенно неконтролируемым, готовым превратить праздник в настоящий ад.
  • Рейтинг:



  • Качество: WEB-DL 1080p
  • Формат: :MKV
  • Видео кодек: AVC
  • Аудио кодек: AC3
  • Видео: 1914x800 (2.40:1), 4547 kbps, 23,976 fps, 0,124 bpp
  • Аудио: русский / 5.1 / 48 kHz / 384 kbps / |Дубляж - [Лицензия / iTunes]|
  • Релиз от: GEKADOL

    Код:

    General
    Unique ID                                : 207752977873735477145647730952150541764 (0x9C4BC4A301601DF489322D92C7B965C4)
    Complete name                            : H:\CBadebHYj.uGaP.2o16.D.WEB-DL.1080p.mkv
    Format                                   : Matroska
    Format version                           : Version 4 / Version 2
    File size                                : 3.40 GiB
    Duration                                 : 1 h 38 min
    Overall bit rate                         : 4 932 kb/s
    Encoded date                             : UTC 2016-09-15 18:12:44
    Writing application                      : mkvmerge v8.3.0 ('Over the Horizon') 64bit
    Writing library                          : libebml v1.3.1 + libmatroska v1.4.2

    Video
    ID                                       : 1
    Format                                   : AVC
    Format/Info                              : Advanced Video Codec
    Format profile                           : High@L4
    Format settings, CABAC                   : Yes
    Format settings, ReFrames                : 5 frames
    Codec ID                                 : V_MPEG4/ISO/AVC
    Duration                                 : 1 h 38 min
    Bit rate                                 : 4 547 kb/s
    Width                                    : 1 914 pixels
    Height                                   : 800 pixels
    Display aspect ratio                     : 2.40:1
    Frame rate mode                          : Constant
    Frame rate                               : 23.976 FPS
    Color space                              : YUV
    Chroma subsampling                       : 4:2:0
    Bit depth                                : 8 bits
    Scan type                                : Progressive
    Bits/(Pixel*Frame)                       : 0.124
    Stream size                              : 3.14 GiB (92%)
    Language                                 : English
    Default                                  : Yes
    Forced                                   : No
    Color range                              : Limited
    Color primaries                          : BT.709
    Transfer characteristics                 : BT.709
    Matrix coefficients                      : BT.709

    Audio
    ID                                       : 2
    Format                                   : AC-3
    Format/Info                              : Audio Coding 3
    Mode extension                           : CM (complete main)
    Format settings, Endianness              : Big
    Codec ID                                 : A_AC3
    Duration                                 : 1 h 38 min
    Bit rate mode                            : Constant
    Bit rate                                 : 384 kb/s
    Channel(s)                               : 6 channels
    Channel positions                        : Front: L C R, Side: L R, LFE
    Sampling rate                            : 48.0 kHz
    Frame rate                               : 31.250 FPS (1536 spf)
    Compression mode                         : Lossy
    Stream size                              : 271 MiB (8%)
    Language                                 : Russian
    Default                                  : Yes
    Forced                                   : No

    Menu
    00:00:00.000                             : en:1
    00:03:38.510                             : en:2
    00:08:11.824                             : en:3
    00:11:25.100                             : en:4
    00:17:28.338                             : en:5
    00:22:32.475                             : en:6
    00:27:21.430                             : en:7
    00:31:28.176                             : en:8
    00:35:22.201                             : en:9
    00:38:16.208                             : en:10
    00:41:25.438                             : en:11
    00:44:24.533                             : en:12
    00:50:21.806                             : en:13
    00:54:11.827                             : en:14
    00:56:52.654                             : en:15
    01:01:15.124                             : en:16
    01:04:43.207                             : en:17
    01:08:23.051                             : en:18
    01:12:27.879                             : en:19
    01:16:32.331                             : en:20
    01:21:07.606                             : en:21
    01:25:29.534                             : en:22
    01:28:44.979                             : en:23
    01:33:50.075                             : en:24




    Скриншоты:



    pb.wtf



  • Скачать Свадебный угар через торрент http://i5.imageban.ru/out/2016/09/17/2f71c0533960a41822fa746f2dc84ff6.jpg Скачать фильм Свадебный угар через торрент бесплантно в хорошем качестве qw.png Братья-тусовщики Майк и Дэйв дают в интернете объявление о поиске пар, чтобы отправиться на свадьбу сестры на Гавайях. Они ... 9.9 10 30
    Info! Золотая раздача, скачанное не засчитывается.
    Торрент: Зарегистрирован [2016-09-17 00:34] · скачан: 1 113 раз
    Статус: √ проверено
    Размер: 3.4 GB
    Как cкачать? Как скачать Свадебный угар через торрент | qTorrent

    % Раздел Тема Автор DL S | L
    Фильмы (Blu-ray, BD-Remux, HDDVD) [ 22.42 GB ] Свадебный угар / Mike and Dave Need Wedding Dates [2016 BD Remux 1080p] DUB [] bober100 Скачать
    1 | 0
    Фильмы [HD 720p, 1080p] (Хороший звук DUB, MVO) [ 8.79 GB ] Свадебный угар / Mike and Dave Need Wedding Dates [2016 BDRip 1080p] DUB [] bober100 Скачать
    1 | 0
    Фильмы [HD 720p, 1080p] (Хороший звук DUB, MVO) [ 6.34 GB ] Свадебный угар / Mike and Dave Need Wedding Dates [2016 BDRip 720p] DUB [] bober100 Скачать
    1 | 0
    Фильмы 2016 [DVDrip, WEB-DLRip, HDrip] (DUB, MVO) [ 1.46 GB ] Свадебный угар / Mike and Dave Need Wedding Dates [2016 WEB-DLRip] killermax2013 Скачать
    1 | 0
    Фильмы без перевода [ 21.86 GB ] Свадебный угар / Mike and Dave Need Wedding Dates [2016 BD Remux] [Оригинал] smaster Скачать
    1 | 0
    Фильмы 2016 [DVDrip, WEB-DLRip, HDrip] (DUB, MVO) [ 2.18 GB ] Свадебный угар / Mike and Dave Need Wedding Dates [2016 BDRip-AVC] DUB bober100 Скачать
    1 | 0
    Фильмы 2016 [DVDrip, WEB-DLRip, HDrip] (DUB, MVO) [ 1.46 GB ] Свадебный угар / Mike and Dave Need Wedding Dates [2016 BDRip] - [] Twi7ter Скачать
    1 | 0

    28-11-2019 20:33  

    Отключить всю рекламу на сайте

      Дорогой пользователь! Огромная просьба, поблагодарите релизера, оцените раздачу и оставьте свои комментарий, если Вы скачали Свадебный угар через торрент бесплатно! Внесите свою лепту в развитие PiratBit!
      Комментировать посты могут только пользователи прошедшие не сложную регистрацию
      Показать сообщения:    

      Свадебный угар через торрент
      Скачать бесплатно Свадебный угар
      Свадебный угар скачать торрент
      Свадебный угар смотреть онлайн
      Cкачать фильм Свадебный угар бесплатно
      Свадебный угар скачать торрент в хорошем качестве
      Свадебный угар смотреть онлайн бесплатно в хорошем качестве


      Вы не можете начинать темы
      Вы не можете отвечать на сообщения
      Вы не можете редактировать свои сообщения
      Вы не можете удалять свои сообщения
      Вы не можете голосовать в опросах
      Вы не можете прикреплять файлы к сообщениям
      Вы можете скачивать файлы