Присоединяйтесь к нам в Telegram!, здесь всегда актуальный адрес сайта, оперативная поддержка и многое другое!!

>

5.9

iTunes

7.4

iTunes

9.4

1 сезон

1

7.4

2 сезон

7.2

iTunes

7.3

1 сезон

13

6.1

iTunes

8.3

GOG

30

ULTIMATE

pack

9.9

Лицензия

ВАЖНО

ИГРА 18+

pack

7.3

RePack

MK11

7.7

RePack

jed

7.8

RePack

fifa19

8.5

RePack

RDR2

RePack

NEED FOR SPEED™ PAYBACK

5 сезон

9 сезон

Бесстыжие 9 сезон

Все сериалы

все сериалы на PB.wtf

RePack

FAR CRY 5

Anonymous, доброй ночи, мы катастрофически не успеваем собрать деньги на оплату серверов, помогите нам пожалуйста 5,10,15р., для нас важна любая помощь . В качестве благодарности мы отключим Вам всю рекламу на сайте (укажите свой ник в строку Ваше имя)!

×
  
Magnet ссылка

Pitbull ft. Chloe Angelides - Sexy Beaches [2016 г., Pop, HDTVRip 1080p] pb.wtf

Pitbull ft. Chloe Angelides - Sexy Beaches через торрент pb.wtf

Размер: 240 MB | Добавлен: 5 лет 2 мес. назад | Торрент скачан:119 раз
Смотреть онлайн Pitbull ft. Chloe Angelides - Sexy Beaches | Скачать    Ребята, помогите собрать деньги на оплату серверов!!!

17-09-2016 08:24 Pitbull ft. Chloe Angelides - Sexy Beaches Скачать торрент  

Pitbull ft. Chloe Angelides - Sexy Beaches
Год выпуска: 2016
Жанр: Pop
Продолжительность: 00:04:02
Качество:HDTVRip 1080p
Формат: MPEG4
Видео кодек: AVC
Аудио кодек:AAC
Видео: MPEG4 AVC, 1920x1080, 23,976 fps, 7975 kbps
Аудио#1: AAC 48,0 kHz, 2 ch, 320 kbps
Общее
Полное имя : Pitbull ft. Chloe Angelides - Sexy Beaches.mp4
Формат : MPEG-4
Профиль формата : Base Media / Version 2
Идентификатор кодека : mp42
Размер файла : 240 Мбайт
Продолжительность : 4 м. 2 с.
Режим общего битрейта : Переменный
Общий поток : 8300 Кбит/сек

Видео
Идентификатор : 1
Формат : AVC
Формат/Информация : Advanced Video Codec
Профиль формата : High@L4.0
Параметр CABAC формата : Да
Параметр ReFrames формата : 8 кадров
Идентификатор кодека : avc1
Идентификатор кодека/Информация : Advanced Video Coding
Продолжительность : 4 м. 2 с.
Продолжительность оригинала : 4 м. 2 с.
Вид битрейта : Переменный
Битрейт : 7975 Кбит/сек
Максимальный битрейт : 40,0 Мбит/сек
Ширина : 1920 пикселей
Высота : 1080 пикселей
Соотношение сторон : 16:9
Режим частоты кадров : Переменный
Частота кадров : 23,976 кадра/сек
Минимальная частота кадров : 23,974 кадра/сек
Максимальная частота кадров : 23,981 кадра/сек
Цветовое пространство : YUV
Субдискретизация насыщенности : 4:2:0
Битовая глубина : 8 бит
Тип развёртки : Прогрессивная
Бит/(Пиксели*Кадры) : 0.160
Размер потока : 230 Мбайт (96%)
Размер потока оригинала : 230 Мбайт (96%)
Язык : English
mdhd_Duration : 242242

Аудио
Идентификатор : 2
Формат : AAC
Формат/Информация : Advanced Audio Codec
Профиль формата : LC
Идентификатор кодека : 40
Продолжительность : 4 м. 2 с.
Продолжительность оригинала : 4 м. 2 с.
Вид битрейта : Переменный
Битрейт : 320 Кбит/сек
Каналы : 2 канала
Расположение каналов : Front: L R
Частота : 48,0 КГц
Метод сжатия : С потерями
Размер потока : 9,24 Мбайт (4%)
Размер потока оригинала : 9,24 Мбайт (4%)
Язык : English
mdhd_Duration : 242282

pb.wtf



Скачать Pitbull ft. Chloe Angelides - Sexy Beaches через торрент http://funkyimg.com/i/2gSaE.jpg Скачать, смотреть онлайн Pitbull ft. Chloe Angelides - Sexy Beaches [2016 г., Pop, HDTVRip 1080p] бесплантно в хорошем качестве Год выпуска: 2016Жанр: PopПродолжительность: ... 8.1 10 8
Торрент: Зарегистрирован [2016-09-17 08:24] · скачан: 119 раз
Статус: √ проверено
Размер: 240 MB
Как cкачать? Как скачать Pitbull ft. Chloe Angelides - Sexy Beaches через торрент | UTorrent

28-11-2019 20:33  

Отключить всю рекламу на сайте

    Дорогой пользователь! Огромная просьба, поблагодарите релизера, оцените раздачу и оставьте свои комментарий, если Вы скачали Pitbull ft. Chloe Angelides - Sexy Beaches через торрент бесплатно!
    Комментировать посты могут только пользователи прошедшие не сложную регистрацию
    Показать сообщения:    

    Pitbull ft. Chloe Angelides - Sexy Beaches через торрент
    Скачать бесплатно Pitbull ft. Chloe Angelides - Sexy Beaches
    Pitbull ft. Chloe Angelides - Sexy Beaches скачать торрент
    Pitbull ft. Chloe Angelides - Sexy Beaches смотреть онлайн
    Cкачать фильм Pitbull ft. Chloe Angelides - Sexy Beaches бесплатно
    Pitbull ft. Chloe Angelides - Sexy Beaches скачать торрент в хорошем качестве
    Pitbull ft. Chloe Angelides - Sexy Beaches смотреть онлайн бесплатно в хорошем качестве


    Вы не можете начинать темы
    Вы не можете отвечать на сообщения
    Вы не можете редактировать свои сообщения
    Вы не можете удалять свои сообщения
    Вы не можете голосовать в опросах
    Вы не можете прикреплять файлы к сообщениям
    Вы можете скачивать файлы