1 сезон

iTunes

iTunes

1

Line

MVO

iTunes

13

1 сезон

RePack

30

Deluxe

pack

Лицензия

ВАЖНО

ИГРА 18+

pack

RePack

MK11

RePack

jed

RePack

fifa19

RePack

RDR2

RePack

NEED FOR SPEED™ PAYBACK

4 сезон

9 сезон

Бесстыжие 9 сезон

Все сериалы

все сериалы на PB.wtf

RePack

FAR CRY 5

Anonymous, добрый вечер, мы катастрофически не успеваем собрать деньги на оплату серверов, помогите нам пожалуйста 5,10,15р., для нас важна любая помощь . В качестве благодарности мы отключим Вам всю рекламу на сайте (укажите свой ник в строку Ваше имя)!

×
  
Magnet ссылка

Жизненные циклы / Life Cycles (Дерек Франковски, Райан Гибб) [2010 г., Документальный, Спорт, BDRip 720p / 60 FPS, Профессиональный (одноголосый)] pb.wtf

Жизненные циклы через торрент pb.wtf

Размер: 2.59 GB | Добавлен: 4 года 10 мес. назад | Торрент скачан:12 раз
Скачать  

17-09-2016 09:38 Жизненные циклы Скачать торрент  

Жизненные циклы / Life Cycles
Год выпуска: 2010
Страна: Канада
Жанр: Документальный, Спорт
Продолжительность: 00:46:58
Перевод: Профессиональный (одноголосый)
Тип релиза: Лицензия
Субтитры: Присутствуют

Режиссер: Дерек Франковски, Райан Гибб
Продюссер: Дерек Франковски, Райан Гибб

Премьера в мире: 21 сентября 2010

rating

В ролях: Грэхам Агассиз, Майк Хопкинс , Мэтт Хантер, Кэмерон МакКол, Райли МакИнтош, Томас Сандерхэм, Ивэн Шварц, Ивэн Шварц, Брэндон Семенюк, Грэхэм Трэйси

Описание: «Жизненые циклы» рассказывает захватывающую историю велосипедов от «создания» до самой «смерти». Визуально ошеломляющее путешествие по пустыням, лесам, полям, заводам и городам.

Качество: BDRip 720p / 60 FPS
Формат: MKV
Видео кодек: AVC
Аудио кодек: AC3
Видео: AVC, 1280x640, 60 fps, 6461 Kbps
Аудио#1: Russian: AC3, 640 kb/s, 6 ch, 48 kHz
Аудио#2: English: AC3, 640 kb/s, 6 ch, 48 kHz




Format : Matroska
Format version : Version 2
File size : 2.59 GiB
Duration : 47mn 1s
Overall bit rate : 7 898 Kbps
Movie name : Жизненные циклы.(2010).BDRip.720p.[envy].[60fps]
Encoded date : UTC 2015-11-12 17:33:43
Writing application : mkvmerge v5.8.0 ('No Sleep / Pillow') built on Sep 2 2012 15:37:04
Writing library : libebml v1.2.3 + libmatroska v1.3.0

Video
ID : 1
Format : AVC
Format/Info : Advanced Video Codec
Format profile : High@L4.1
Format settings, CABAC : Yes
Format settings, ReFrames : 9 frames
Codec ID : V_MPEG4/ISO/AVC
Duration : 47mn 1s
Bit rate : 6 461 Kbps
Width : 1 280 pixels
Height : 640 pixels
Display aspect ratio : 2.000
Frame rate mode : Constant
Frame rate : 59.880 fps
Original frame rate : 59.940 fps
Color space : YUV
Chroma subsampling : 4:2:0
Bit depth : 8 bits
Scan type : Progressive
Bits/(Pixel*Frame) : 0.132
Stream size : 2.12 GiB (82%)
Title : Жизненные циклы.(2010).BDRip.720p.[envy].[60fps]
Writing library : x264 core 146 r2538 121396c
Language : English
Default : Yes
Forced : No

Audio #1
ID : 2
Format : AC-3
Format/Info : Audio Coding 3
Mode extension : CM (complete main)
Format settings, Endianness : Big
Codec ID : A_AC3
Duration : 47mn 1s
Bit rate mode : Constant
Bit rate : 640 Kbps
Channel(s) : 6 channels
Channel positions : Front: L C R, Side: L R, LFE
Sampling rate : 48.0 KHz
Compression mode : Lossy
Stream size : 215 MiB (8%)
Title : Omikron E.Maluha
Language : Russian
Default : Yes
Forced : No

Audio #2
ID : 3
Format : AC-3
Format/Info : Audio Coding 3
Mode extension : CM (complete main)
Format settings, Endianness : Big
Codec ID : A_AC3
Duration : 47mn 1s
Bit rate mode : Constant
Bit rate : 640 Kbps
Channel(s) : 6 channels
Channel positions : Front: L C R, Side: L R, LFE
Sampling rate : 48.0 KHz
Compression mode : Lossy
Stream size : 215 MiB (8%)
Title : Eng
Language : English
Default : No
Forced : No

Text
ID : 4
Format : UTF-8
Codec ID : S_TEXT/UTF8
Codec ID/Info : UTF-8 Plain Text
Title : Rus full
Language : Russian
Default : No
Forced : No

pb.wtf



Скачать Жизненные циклы через торрент http://picua.org/img/2016-09/17/pzphs8uy7zr2b8689gfg2se0v.jpg Скачать фильм Жизненные циклы через торрент бесплантно в хорошем качестве Описание: «Жизненые циклы» рассказывает захватывающую историю велосипедов от «создания» до самой «смерти». Визуально ошеломляющее ... 5 10 1
Торрент: Зарегистрирован [2016-09-17 09:38] · скачан: 12 раз
Статус: √ проверено
Размер: 2.59 GB
Как cкачать? Как скачать Жизненные циклы через торрент | UTorrent



Последний раз редактировалось: Quatron (2016-11-06 19:01), всего редактировалось 5 раз(а)

28-11-2019 20:33  

Отключить всю рекламу на сайте

17-09-2016 09:59 Жизненные циклы Скачать торрент  

Quatron, скриншоты не соответствуют заявленному разрешению

Как сделать скриншот? pb.wtf



    Дорогой пользователь! Огромная просьба, поблагодарите релизера, оцените раздачу и оставьте свои комментарий, если Вы скачали Жизненные циклы через торрент бесплатно! Внесите свою лепту в развитие PiratBit!
    Комментировать посты могут только пользователи прошедшие не сложную регистрацию
    Показать сообщения:    

    Жизненные циклы через торрент
    Скачать бесплатно Жизненные циклы
    Жизненные циклы скачать торрент
    Жизненные циклы смотреть онлайн
    Cкачать фильм Жизненные циклы бесплатно
    Жизненные циклы скачать торрент в хорошем качестве
    Жизненные циклы смотреть онлайн бесплатно в хорошем качестве


    Вы не можете начинать темы
    Вы не можете отвечать на сообщения
    Вы не можете редактировать свои сообщения
    Вы не можете удалять свои сообщения
    Вы не можете голосовать в опросах
    Вы не можете прикреплять файлы к сообщениям
    Вы можете скачивать файлы